<?xml version="1.0" standalone="no"?>
<!DOCTYPE svg PUBLIC "-//W3C//DTD SVG 1.1//EN" "http://www.w3.org/Graphics/SVG/1.1/DTD/svg11.dtd" >
<svg xmlns="http://www.w3.org/2000/svg" xmlns:xlink="http://www.w3.org/1999/xlink" version="1.1">
<metadata>
Created by FontForge 20170731 at Sat Feb 16 01:28:21 2013
 By ,,,
Generated in 2009 by FontLab Studio. Copyright info pending.
</metadata>
<defs>
<font id="ChunkFiveEx" horiz-adv-x="740" >
  <font-face 
    font-family="ChunkFive Ex"
    font-weight="400"
    font-stretch="normal"
    units-per-em="1000"
    panose-1="0 0 0 0 0 0 0 0 0 0"
    ascent="750"
    descent="-250"
    x-height="500"
    cap-height="699"
    bbox="-229 -360 1654 1101"
    underline-thickness="50"
    underline-position="-150"
    unicode-range="U+0020-FB06"
  />
<missing-glyph horiz-adv-x="280" 
 />
    <glyph glyph-name=".notdef" horiz-adv-x="280" 
 />
    <glyph glyph-name=".null" horiz-adv-x="0" 
 />
    <glyph glyph-name="nonmarkingreturn" horiz-adv-x="280" 
 />
    <glyph glyph-name="space" unicode=" " horiz-adv-x="250" 
 />
    <glyph glyph-name="exclam" unicode="!" horiz-adv-x="308" 
d="M28 102q0 19 7.5 38t22.5 34t36 24.5t48 9.5t48.5 -8.5t37.5 -23t24.5 -34t8.5 -40.5q0 -42 -32 -72.5t-87 -30.5q-24 0 -45 9t-36.5 23t-24 32.5t-8.5 38.5zM32 509v190h239v-190l-53 -252h-132z" />
    <glyph glyph-name="quotedbl" unicode="&#x22;" horiz-adv-x="516" 
d="M485 701l-36 -299h-125l-37 299h198zM234 701l-36 -299h-125l-37 299h198z" />
    <glyph glyph-name="numbersign" unicode="#" horiz-adv-x="569" 
d="M249 410l-14 -111h81l14 111h-81zM448 410l-15 -111h75v-106h-88l-27 -193h-117l27 193h-81l-27 -193h-117l27 193h-75v106h88l15 111h-75v106h88l25 181h117l-24 -181h80l25 181h117l-24 -181h74v-106h-88z" />
    <glyph glyph-name="dollar" unicode="$" horiz-adv-x="710" 
d="M285 17q-24 13 -42.5 28.5t-31.5 31.5l-11 -77h-175v252h186q0 -31 14 -50.5t33.5 -30.5t41 -15t37.5 -4q13 0 28 2t27.5 7.5t21 15t8.5 25.5q0 19 -28.5 31.5t-71 24.5t-92.5 27.5t-92.5 42.5t-71 68.5t-28.5 105.5q0 55 23.5 96t59 67t77 39t78.5 13h9v47h154v-95
q14 -11 25.5 -24t20.5 -30l10 84h172v-251h-181q0 28 -10 49.5t-27.5 36.5t-41 22.5t-49.5 7.5q-11 0 -23 -3.5t-22.5 -10t-17 -16.5t-6.5 -23q0 -26 29.5 -43t73.5 -32t95 -32.5t95 -43.5t73.5 -65t29.5 -98q0 -56 -22.5 -95t-57.5 -64t-79 -37.5t-87 -14.5v-51h-154v82z
" />
    <glyph glyph-name="percent" unicode="%" horiz-adv-x="1177" 
d="M1146 161q0 -44 -21 -78.5t-55 -58.5t-77 -36.5t-86 -12.5q-59 0 -103.5 15t-74.5 41.5t-45.5 62.5t-15.5 78q0 44 21 78.5t55 58.5t77 36.5t86 12.5q57 0 101.5 -15t75 -41.5t46.5 -62.5t16 -78zM977 184q0 11 -7.5 20t-18.5 15t-23.5 9.5t-22.5 3.5q-27 0 -49 -19
t-22 -49q0 -28 23.5 -45.5t51.5 -17.5q27 0 49 19t22 49q0 7 -3 15zM696 707h170l-373 -704h-170zM525 514q0 -44 -21 -78.5t-55 -58.5t-77 -36.5t-86 -12.5q-59 0 -103.5 15t-74.5 41.5t-45.5 62.5t-15.5 78q0 44 21 78.5t55 58.5t77 36.5t86 12.5q57 0 101.5 -15t75 -41.5
t46.5 -62.5t16 -78zM356 537q0 11 -7.5 20t-18.5 15t-23.5 9.5t-22.5 3.5q-27 0 -49 -19t-22 -49q0 -28 23.5 -45.5t51.5 -17.5q27 0 49 19t22 49q0 7 -3 15z" />
    <glyph glyph-name="ampersand" unicode="&#x26;" horiz-adv-x="734" 
d="M243 256q-24 -24 -24 -60q0 -33 21 -58t63 -25q37 0 65 16zM338 508q0 21 -10.5 34t-27.5 13q-24 0 -33.5 -15t-9.5 -32t5 -27.5t14 -21.5l21 -25q14 9 27.5 29t13.5 45zM496 0l-35 36q-38 -24 -91.5 -36.5t-104.5 -12.5q-50 0 -92.5 12t-73 36t-48 60t-17.5 83
q0 54 28.5 99.5t91.5 73.5q-38 24 -57.5 61.5t-19.5 85.5q0 39 16 71t45 55.5t70 36t91 12.5t90 -12.5t68 -34.5t43 -51.5t15 -62.5q0 -27 -6.5 -49.5t-21.5 -42.5t-40.5 -38.5t-62.5 -37.5l100 -100q11 17 23 44.5t20 51.5l138 -40q-12 -42 -34.5 -85t-45.5 -73l141 -142
h-230z" />
    <glyph glyph-name="quotesingle" unicode="'" horiz-adv-x="273" 
d="M234 701l-36 -299h-125l-37 299h198z" />
    <glyph glyph-name="parenleft" unicode="(" horiz-adv-x="388" 
d="M363 709q-18 -22 -44.5 -56.5t-50.5 -83t-41.5 -112.5t-17.5 -145q0 -84 16 -149t39 -115.5t50 -87t49 -62.5l-103 -107q-41 37 -82.5 91t-75.5 121t-55.5 145t-21.5 164q0 88 25 168t61.5 145t77 114t71.5 76z" />
    <glyph glyph-name="parenright" unicode=")" horiz-adv-x="388" 
d="M128 814q31 -27 71.5 -76t77 -114t61.5 -145t25 -168q0 -86 -21.5 -164t-55.5 -145t-76 -121t-82 -91l-103 107q22 26 49 62.5t50 87t39 115.5t16 149q0 81 -17.5 145t-41.5 112.5t-50.5 83t-44.5 56.5z" />
    <glyph glyph-name="asterisk" unicode="*" horiz-adv-x="508" 
d="M354 461l79 -111l-106 -76l-80 109l-78 -102l-102 77l83 103l-127 45l40 120l124 -47v131h130v-131l124 40l37 -120z" />
    <glyph glyph-name="plus" unicode="+" horiz-adv-x="722" 
d="M432 262v-238h-163v238h-233v158h233v234h163v-234h233v-158h-233z" />
    <glyph glyph-name="comma" unicode="," horiz-adv-x="272" 
d="M-6 -129q24 30 42 59.5t30 62.5t18.5 70.5t6.5 82.5q0 12 -0.5 24.5t-1.5 25.5l182 -48v-12q0 -94 -43.5 -179t-118.5 -151z" />
    <glyph glyph-name="hyphen" unicode="-" horiz-adv-x="386" 
d="M47 305h290v-133h-290v133z" />
    <glyph glyph-name="period" unicode="." horiz-adv-x="258" 
d="M15 104q0 19 7.5 39.5t21.5 37t35.5 27t48.5 10.5t48.5 -10.5t36.5 -27t22.5 -37t7.5 -39.5q0 -45 -29 -76.5t-86 -31.5q-25 0 -45.5 9.5t-35.5 24.5t-23.5 34.5t-8.5 39.5z" />
    <glyph glyph-name="slash" unicode="/" horiz-adv-x="567" 
d="M417 750h117l-415 -805h-117z" />
    <glyph glyph-name="zero" unicode="0" horiz-adv-x="599" 
d="M302 -12q-63 0 -115.5 22.5t-90.5 68t-59.5 114t-21.5 160.5q0 79 20.5 145.5t58 113.5t89.5 73.5t114 26.5q73 0 127.5 -26t89.5 -74t52.5 -115.5t17.5 -150.5t-18.5 -149.5t-54.5 -113t-88.5 -71t-120.5 -24.5zM302 143q17 0 32 14.5t26 41t17 64t6 83.5q0 45 -7 82.5
t-19 65t-28 42.5t-34 15q-14 0 -28.5 -14t-26.5 -39.5t-19.5 -62.5t-7.5 -82q0 -48 8.5 -87t21 -66.5t28.5 -42t31 -14.5z" />
    <glyph glyph-name="one" unicode="1" horiz-adv-x="496" 
d="M25 568q21 10 41 20t40.5 23.5t43.5 34t50 53.5h178v-566h93v-133h-400v133h100v371l-100 -47z" />
    <glyph glyph-name="two" unicode="2" horiz-adv-x="590" 
d="M33 586q53 61 119 92.5t141 31.5q50 0 93.5 -15t75.5 -43.5t50.5 -69t18.5 -91.5q0 -43 -10 -74t-30 -55.5t-50 -46.5t-70 -48q-18 -12 -40.5 -28.5t-44 -35t-39 -37t-26.5 -33.5h176v80h168v-213h-540v145q21 34 37 57.5t32.5 42t34.5 35t42 35.5q27 24 58 44t57.5 39.5
t44 40t17.5 43.5q0 38 -24.5 52t-59.5 14q-20 0 -37.5 -7.5t-33 -18.5t-28.5 -24.5t-24 -25.5z" />
    <glyph glyph-name="three" unicode="3" horiz-adv-x="540" 
d="M248 -13q-36 0 -71 9.5t-66.5 25t-56 36t-39.5 42.5l102 106q28 -28 58.5 -46.5t73.5 -18.5q42 0 66 19.5t24 57.5q0 41 -22.5 57t-60.5 16h-75v119h73q36 0 60.5 17.5t24.5 51.5q0 20 -8 35t-20.5 24.5t-28 14.5t-31.5 5q-29 0 -60 -16t-57 -44l-97 117q13 15 35.5 31.5
t51 30.5t61 23.5t66.5 9.5q61 0 108.5 -15t80 -43t49.5 -67t17 -87q0 -26 -8 -46t-19.5 -35.5t-24 -27t-22.5 -18.5q12 -9 28 -23t30.5 -34t24.5 -46.5t10 -60.5q0 -56 -24.5 -97t-63.5 -68.5t-88.5 -41t-100.5 -13.5z" />
    <glyph glyph-name="four" unicode="4" horiz-adv-x="584" 
d="M10 340l288 359h207v-394h53v-108h-53v-65h54v-132h-324v132h63v65h-288v143zM298 305v185l-148 -185h148z" />
    <glyph glyph-name="five" unicode="5" horiz-adv-x="577" 
d="M263 -13q-38 0 -75.5 10t-71 27t-60 39t-41.5 45l109 113q29 -30 62.5 -52t77.5 -22q51 0 80.5 28t29.5 72q0 20 -8 37.5t-21.5 31t-32.5 21t-40 7.5q-35 0 -56.5 -14.5t-37.5 -31.5l-128 57l61 344h396v-149h-269l-17 -97q15 10 43 17t65 7q44 0 86 -15t74.5 -45
t52.5 -74.5t20 -102.5q0 -63 -26.5 -110.5t-69 -79t-96 -47.5t-107.5 -16z" />
    <glyph glyph-name="six" unicode="6" horiz-adv-x="581" 
d="M478 501q-26 15 -63 33t-83 18q-28 0 -50.5 -11t-39 -30t-27 -43.5t-14.5 -51.5q21 21 59.5 36t81.5 15q46 0 87 -16.5t71.5 -45.5t48 -70.5t17.5 -90.5q0 -51 -18.5 -97t-53 -80.5t-84.5 -55t-113 -20.5q-61 0 -112.5 22.5t-89 64.5t-58.5 103t-21 138q0 34 4 76
t16 85.5t33 84.5t54 73.5t80.5 52t112.5 19.5q25 0 56.5 -5.5t63 -16t60.5 -25t50 -32.5zM306 323q-18 -1 -34 -7t-29.5 -14.5t-23.5 -18.5t-16 -17q0 -19 5.5 -39.5t17 -38t29 -29t41.5 -11.5q39 0 65 25t26 61q0 15 -4.5 31t-14 28.5t-25 21t-37.5 8.5z" />
    <glyph glyph-name="seven" unicode="7" horiz-adv-x="566" 
d="M15 699h541v-133l-269 -566h-216l268 566h-164v-65h-160v198z" />
    <glyph glyph-name="eight" unicode="8" horiz-adv-x="559" 
d="M15 205q0 24 7.5 50t21.5 50t34 44t45 32q-38 23 -56.5 60t-18.5 73q0 42 16 78t46.5 62.5t75 41.5t100.5 15q58 0 102.5 -15t75 -41.5t46 -62.5t15.5 -78q0 -50 -25.5 -85t-58.5 -51q51 -25 77 -73.5t26 -99.5q0 -46 -18.5 -86t-53 -69t-83.5 -46t-109 -17
q-62 0 -111.5 17t-83.5 46t-52 69t-18 86zM188 211q0 -18 7.5 -33t20 -26t29.5 -17t36 -6q36 0 64 20t28 62q0 26 -13.5 43t-33 27t-41.5 14t-39 5q-23 -13 -40.5 -37t-17.5 -52zM359 522q0 27 -22.5 45t-52.5 18q-29 0 -50.5 -19t-21.5 -44q0 -21 11 -33.5t26.5 -19.5
t32.5 -10t29 -3q19 9 33.5 26t14.5 40z" />
    <glyph glyph-name="nine" unicode="9" horiz-adv-x="587" 
d="M103 200q26 -15 63 -33t83 -18q57 0 89.5 35t32.5 101q-21 -21 -54.5 -36t-77.5 -15q-47 0 -87.5 16t-71 45.5t-48 70.5t-17.5 91q0 51 18.5 97t53 80.5t84.5 55t113 20.5q62 0 114.5 -23t91 -65.5t60 -104t21.5 -139.5q0 -38 -5 -81t-17.5 -86t-34 -83t-55.5 -70.5
t-82 -48.5t-112 -18q-26 0 -57 5.5t-62.5 15.5t-60.5 25t-50 33zM275 378q18 1 32.5 7t26 14.5t20.5 18t15 17.5q0 19 -4 39.5t-14 38t-26 29t-40 11.5q-39 0 -65 -25t-26 -61q0 -15 4 -31t14 -28.5t25 -21t38 -8.5z" />
    <glyph glyph-name="colon" unicode=":" horiz-adv-x="254" 
d="M15 98q0 19 7 38.5t21.5 36t35 27t47.5 10.5t48 -10.5t35.5 -27t22 -36t7.5 -38.5q0 -22 -8 -41.5t-23 -33.5t-36 -22.5t-46 -8.5q-24 0 -44.5 9t-35.5 24t-23 34t-8 39zM15 402q0 19 7 38.5t21.5 36t35 27t47.5 10.5t48 -10.5t35.5 -27t22 -36t7.5 -38.5
q0 -45 -29.5 -75.5t-83.5 -30.5q-23 0 -43.5 9t-35.5 24t-23.5 34t-8.5 39z" />
    <glyph glyph-name="semicolon" unicode=";" horiz-adv-x="302" 
d="M5 -129q24 30 42 59.5t30 62.5t18.5 70.5t6.5 82.5q0 12 -0.5 24.5t-1.5 25.5l182 -48v-12q0 -94 -43.5 -179t-118.5 -151zM59 385q0 19 7.5 39.5t21.5 37t35.5 27t48.5 10.5t48.5 -10.5t36.5 -27t22.5 -37t7.5 -39.5q0 -45 -30.5 -76.5t-84.5 -31.5q-24 0 -44.5 9.5
t-35.5 24.5t-24 34.5t-9 39.5z" />
    <glyph glyph-name="less" unicode="&#x3c;" horiz-adv-x="341" 
d="M198 496l126 -79l-121 -160l121 -159l-126 -81l-178 240z" />
    <glyph glyph-name="equal" unicode="=" horiz-adv-x="502" 
d="M44 305h412v-133h-412v133zM44 526h412v-133h-412v133z" />
    <glyph glyph-name="greater" unicode="&#x3e;" horiz-adv-x="341" 
d="M146 17l-126 81l121 159l-121 160l126 79l178 -239z" />
    <glyph glyph-name="question" unicode="?" horiz-adv-x="520" 
d="M2 586q53 61 119 95t141 34q50 0 93.5 -13t75.5 -39t50.5 -64t18.5 -89q0 -33 -12 -57.5t-29.5 -44.5t-38 -35.5t-38 -29t-29.5 -27t-12 -28.5v-55h-185l-1 80q0 34 24.5 62t54.5 51.5t55 44t25 41.5q0 14 -6.5 23t-17 14.5t-24 7.5t-26.5 2q-16 0 -33.5 -7t-35 -19
t-33 -26.5t-28.5 -29.5zM129 102q0 19 7.5 38t22.5 34t36 24.5t48 9.5t48.5 -8.5t37.5 -23t24.5 -34t8.5 -40.5q0 -42 -32 -72.5t-87 -30.5q-24 0 -45 9t-36.5 23t-24 32.5t-8.5 38.5z" />
    <glyph glyph-name="at" unicode="@" horiz-adv-x="929" 
d="M904 336q0 -92 -18.5 -155t-48.5 -103t-69.5 -57.5t-81.5 -17.5q-40 0 -65 11.5t-39 28.5t-19.5 37.5t-6.5 37.5q-8 -20 -20.5 -40.5t-31.5 -38t-45.5 -28.5t-62.5 -11q-27 0 -55 8.5t-51 31t-37.5 61.5t-14.5 100q0 75 18.5 130.5t49 92.5t71.5 55.5t86 18.5
q36 0 56 -12t31 -24l24 28h119l-44 -269q-3 -18 -3 -34q0 -26 10 -43.5t36 -17.5q27 0 42 44.5t15 155.5q0 65 -13.5 115t-43.5 84.5t-78.5 52t-118.5 17.5q-73 0 -131 -26t-99 -74.5t-63 -116.5t-22 -152q0 -89 21.5 -148.5t57.5 -95.5t82 -51.5t94 -15.5q77 0 135 10
t99 22v-130q-38 -11 -95.5 -21.5t-138.5 -10.5q-72 0 -145.5 20t-132 70t-95.5 135t-37 216q0 127 39.5 221t105.5 155.5t150.5 92t174.5 30.5q89 0 164 -23.5t129.5 -71.5t85 -121t30.5 -173zM524 373q-7 3 -18.5 8t-26.5 5q-21 0 -36.5 -18t-25.5 -45t-15 -59.5t-5 -60.5
q0 -52 6 -70t25 -18q12 0 22.5 10t19.5 25t16.5 33.5t12.5 36.5z" />
    <glyph glyph-name="A" unicode="A" horiz-adv-x="823" 
d="M808 0h-401v131h95l-21 68h-205l-21 -68h78v-131h-318v131h68l135 439h-41v129h384l177 -568h70v-131zM313 319h131l-66 216z" />
    <glyph glyph-name="B" unicode="B" horiz-adv-x="687" 
d="M25 0v130h58v440h-58v129h373q125 0 185 -44.5t60 -126.5q0 -32 -5 -55.5t-16 -42t-30 -32.5t-47 -25q27 -8 51 -21.5t42 -34.5t28.5 -49.5t10.5 -64.5q0 -106 -63.5 -154.5t-208.5 -48.5h-380zM370 130q32 0 56.5 22.5t24.5 63.5q0 38 -21 63t-63 25h-77v-174h80z
M290 567v-150h61q40 0 54 20.5t14 56.5q0 35 -18.5 54t-47.5 19h-63z" />
    <glyph glyph-name="C" unicode="C" horiz-adv-x="686" 
d="M671 125q-26 -28 -58 -53.5t-70 -45t-82 -31t-93 -11.5q-80 0 -145 24.5t-111 71t-71.5 113t-25.5 150.5q0 86 29 154.5t74 116t98.5 72.5t102.5 25q37 0 64.5 -9t46.5 -20.5t29.5 -23t13.5 -15.5l23 56h157v-284h-179q-1 24 -8 47t-19.5 40.5t-32 28t-46.5 10.5
t-49 -15.5t-37.5 -42.5t-24 -63t-8.5 -77q0 -37 9.5 -71t28 -60t45.5 -41.5t63 -15.5q31 0 59 14t49 31.5t34.5 33t16.5 19.5z" />
    <glyph glyph-name="D" unicode="D" horiz-adv-x="720" 
d="M25 0v133h62v434h-62v132h305q91 0 161.5 -26.5t119 -72t74 -107.5t25.5 -134q0 -172 -99 -265.5t-285 -93.5h-301zM480 359q0 40 -8.5 77.5t-26.5 66.5t-46.5 46.5t-68.5 17.5h-38v-434h38q40 0 68.5 18t46.5 48.5t26.5 71.5t8.5 88z" />
    <glyph glyph-name="E" unicode="E" horiz-adv-x="653" 
d="M25 699h603v-221h-173v89h-160v-138h190v-133h-190v-163h160v93h173v-226h-603v133h63v434h-63v132z" />
    <glyph glyph-name="F" unicode="F" horiz-adv-x="638" 
d="M25 699h598v-221h-177v89h-151v-174h190v-133h-190v-127h102v-133h-372v133h62v434h-62v132z" />
    <glyph glyph-name="G" unicode="G" horiz-adv-x="776" 
d="M490 63q-17 -28 -60 -50t-101 -22q-66 0 -123 24.5t-99.5 70.5t-67 111t-24.5 146q0 82 26 149.5t69 116t98 75.5t114 27q54 0 89 -11t56.5 -25t32.5 -28t17 -20l21 72h149v-295h-179q-1 30 -10.5 54t-25.5 40t-36 24.5t-42 8.5q-30 0 -55.5 -15.5t-43.5 -41t-28 -60
t-10 -71.5q0 -38 9 -71.5t26.5 -58.5t43 -39.5t58.5 -14.5q43 0 64 14.5t32 34.5v42h-61v107h332v-107h-40v-250h-200z" />
    <glyph glyph-name="H" unicode="H" horiz-adv-x="768" 
d="M25 699h324v-132h-62v-151h190v151h-59v132h325v-132h-58v-435h58v-132h-325v132h59v151h-190v-151h62v-132h-324v132h55v435h-55v132z" />
    <glyph glyph-name="I" unicode="I" horiz-adv-x="382" 
d="M25 699h332v-132h-62v-434h62v-133h-332v133h63v434h-63v132z" />
    <glyph glyph-name="J" unicode="J" horiz-adv-x="463" 
d="M20 -61q19 -9 45 -9q37 0 60 32t23 112v494h-86v131h376v-131h-83v-494q0 -66 -15 -118t-48.5 -87.5t-87.5 -54t-131 -18.5q-14 0 -27.5 3t-24.5 8z" />
    <glyph glyph-name="K" unicode="K" horiz-adv-x="815" 
d="M340 570h-54v-163l186 163h-72v129h333v-129h-58l-145 -125l202 -315h58v-130h-390v130h68l-108 170l-74 -63v-107h54v-130h-315v130h54v440h-54v129h315v-129z" />
    <glyph glyph-name="L" unicode="L" horiz-adv-x="610" 
d="M25 699h316v-132h-53v-434h129v127h168v-260h-560v133h55v434h-55v132z" />
    <glyph glyph-name="M" unicode="M" horiz-adv-x="1008" 
d="M719 523q-3 -17 -7 -37t-8 -38.5t-8 -34t-6 -24.5l-105 -389h-209l-112 399q-2 6 -5 19.5t-6 30.5t-6 36t-4 38h-4v-394h57v-129h-271v129h54v441h-53v129h379l101 -374l96 374h381v-129h-55v-440h55v-130h-316v130h57v393h-5z" />
    <glyph glyph-name="N" unicode="N" horiz-adv-x="816" 
d="M791 570h-66v-570h-215l-255 381v-252h77v-129h-307v129h59v441h-58v129h287l246 -367v238h-69v129h301v-129z" />
    <glyph glyph-name="O" unicode="O" 
d="M373 -18q-78 0 -144 23t-113.5 69t-74 115.5t-26.5 163.5q0 81 25.5 148t72 115.5t111 75t142.5 26.5q92 0 159.5 -26.5t112 -75t66 -117.5t21.5 -153q0 -85 -23 -152.5t-68 -114.5t-110.5 -72t-150.5 -25zM373 139q24 0 42.5 15t32 42t20.5 65t7 85q0 46 -6.5 85.5
t-20 69t-34.5 46.5t-50 17q-23 0 -41.5 -15.5t-32 -43.5t-21 -67t-7.5 -85q0 -49 8.5 -88.5t23 -67.5t35 -43t44.5 -15z" />
    <glyph glyph-name="P" unicode="P" horiz-adv-x="640" 
d="M25 699h324q87 0 141 -17.5t84 -47t40.5 -68t10.5 -81.5q0 -50 -21 -87t-57 -61.5t-83.5 -37t-101.5 -12.5h-76v-155h61v-132h-322v132h56v436h-56v131zM286 569v-174h45q44 0 71 21.5t27 61.5q0 45 -24.5 68t-68.5 23h-50z" />
    <glyph glyph-name="Q" unicode="Q" horiz-adv-x="755" 
d="M357 0q-76 0 -139 22t-108 66.5t-70 110.5t-25 155q0 76 24 140t68.5 110.5t106.5 72t137 25.5q88 0 152.5 -25.5t106.5 -72t62.5 -112t20.5 -145.5q0 -159 -83 -250q6 -23 15.5 -44t28.5 -21q13 0 16.5 16t3.5 29v29h66v-51q0 -33 -9.5 -62.5t-28 -51t-47 -34
t-65.5 -12.5q-31 0 -56 9t-44 24.5t-33 35.5t-22 42q-36 -6 -78 -6zM357 347q32 0 60 -11t52 -28q1 9 1.5 18.5t0.5 20.5q0 43 -8.5 81.5t-24.5 66.5t-38.5 44.5t-50.5 16.5q-23 0 -43.5 -15.5t-36 -42.5t-25 -64t-9.5 -80q0 -32 4 -55q17 18 45 33t73 15zM357 150
q28 0 53 22q-5 38 -16 61t-37 23q-25 0 -40.5 -21.5t-26.5 -51.5q30 -33 67 -33z" />
    <glyph glyph-name="R" unicode="R" horiz-adv-x="737" 
d="M25 699h325q87 0 141 -16t84.5 -44t41 -65.5t10.5 -80.5q0 -29 -11 -54t-30.5 -43.5t-46 -31t-57.5 -16.5q26 -4 49.5 -16.5t41.5 -31.5t29 -43t11 -51q0 -32 5 -50t19 -18q23 0 23 32v33h67v-55q0 -31 -7 -60t-24 -51t-45 -35.5t-70 -13.5q-99 0 -146.5 49t-47.5 137
q0 34 -3 56t-13.5 34.5t-30.5 17.5t-53 5v-155h61v-132h-323v132h56v436h-56v131zM287 569v-170h45q44 0 70 20.5t26 60.5q0 45 -23.5 67t-67.5 22h-50z" />
    <glyph glyph-name="S" unicode="S" horiz-adv-x="710" 
d="M25 0v252h186q0 -31 14 -50.5t33.5 -30.5t41 -15t37.5 -4q13 0 28 2t27.5 7.5t21 15t8.5 25.5q0 19 -28.5 31.5t-71 24.5t-92.5 27.5t-92.5 42.5t-71 68.5t-28.5 105.5q0 55 23.5 96t59 67t77 39t78.5 13q31 0 62 -5.5t59 -17.5t50.5 -31.5t37.5 -47.5l10 84h172v-251
h-181q0 28 -10 49.5t-27.5 36.5t-41 22.5t-49.5 7.5q-11 0 -23 -3.5t-22.5 -10t-17 -16.5t-6.5 -23q0 -26 29.5 -43t73.5 -32t95 -32.5t95 -43.5t73.5 -65t29.5 -98t-24.5 -99t-63 -65.5t-85.5 -36.5t-92 -11q-38 0 -70 8t-58 21t-46.5 29.5t-34.5 33.5l-11 -77h-175z" />
    <glyph glyph-name="T" unicode="T" horiz-adv-x="701" 
d="M686 699v-260h-147v128h-84v-434h83v-133h-372v133h82v434h-86v-128h-147v260h671z" />
    <glyph glyph-name="U" unicode="U" horiz-adv-x="737" 
d="M15 699h318v-129h-54v-216q0 -60 6.5 -98t19.5 -59.5t31.5 -29.5t42.5 -8q23 0 41.5 6.5t32 27t20.5 59t7 103.5v212h-54v132h296v-129h-54v-243q0 -178 -73 -261t-214 -83q-152 5 -231 86.5t-79 252.5v247h-56v130z" />
    <glyph glyph-name="V" unicode="V" horiz-adv-x="773" 
d="M425 224q2 21 11 55t25 72l91 218h-52v130h283v-130h-49l-240 -569h-184l-265 569h-55v130h369v-130h-55l85 -224q12 -37 20.5 -68.5t10.5 -52.5h5z" />
    <glyph glyph-name="W" unicode="W" horiz-adv-x="1015" 
d="M325 226q1 10 6 37t12 62t15 74t16 75l50 225h208l63 -276q6 -24 10.5 -51t8 -53t6.5 -50t5 -43h5q1 17 4.5 43t8 53.5t9 53t8.5 41.5l34 152h-55v130h286v-130h-55l-149 -569h-237l-60 238q-3 13 -7 29.5t-7 33.5t-6 33t-5 28h-4q-2 -11 -4.5 -27.5t-6 -34t-7 -33.5
t-6.5 -27l-61 -240h-232l-132 569h-56v130h330v-130h-58l26 -146q4 -18 9 -47t9.5 -58.5t8 -55t5.5 -36.5h5z" />
    <glyph glyph-name="X" unicode="X" horiz-adv-x="835" 
d="M357 0h-332v129h87l147 191l-181 249h-52v130h396v-130h-58l98 -133l102 133h-88v130h332v-130h-85l-151 -193l180 -246h58v-130h-399v130h57l-97 130l-103 -131h89v-129z" />
    <glyph glyph-name="Y" unicode="Y" horiz-adv-x="669" 
d="M373 384q1 7 5.5 18t10 23t11.5 24t10 21l55 101h-55v128h269v-128h-54l-185 -325v-116h56v-130h-320v130h57v118l-194 323h-49v128h342v-128h-52l58 -106q2 -7 6.5 -18t9.5 -23t9 -23t6 -17h4z" />
    <glyph glyph-name="Z" unicode="Z" horiz-adv-x="714" 
d="M31 436v263h656v-133l-364 -434h185v128h178v-260h-661v130l364 437h-189v-131h-169z" />
    <glyph glyph-name="bracketleft" unicode="[" horiz-adv-x="720" 
d="M29 700h324q87 0 141 -19.5t84 -51.5t40.5 -73t10.5 -84q0 -56 -30 -97.5t-78 -67.5l112 -177h58v-130h-192l-166 268h-43v-136h61v-132h-322v132h56v436h-56v132zM290 569v-174h45q44 0 71 21.5t27 61.5q0 45 -24.5 68t-68.5 23h-50z" />
    <glyph glyph-name="backslash" unicode="\" horiz-adv-x="567" 
d="M534 -55h-117l-415 805h117z" />
    <glyph glyph-name="bracketright" unicode="]" horiz-adv-x="647" 
d="M30 0v130h41v489h-41v131h231v-452l116 69h-72v133h280v-133h-77l-63 -37l139 -199h41v-131h-162l-168 239l-35 -24v-84h71v-131h-301z" />
    <glyph glyph-name="asciicircum" unicode="^" horiz-adv-x="666" 
d="M400 389l-65 163l-67 -163h-186l151 319h204l151 -319h-188z" />
    <glyph glyph-name="underscore" unicode="_" horiz-adv-x="500" 
d="M0 -125v50h500v-50h-500z" />
    <glyph glyph-name="grave" unicode="`" horiz-adv-x="509" 
d="M53 701l78 -142h-125l-151 142h198z" />
    <glyph glyph-name="a" unicode="a" horiz-adv-x="600" 
d="M36 458q15 9 38 21t51.5 23.5t61 19t67.5 7.5q45 0 93 -9.5t87.5 -33t65 -63.5t25.5 -100v-195h60v-128h-214l-24 45q-14 -19 -31.5 -31.5t-36 -19.5t-36.5 -10t-31 -3q-36 0 -71 10t-63 30t-45.5 51.5t-17.5 75.5q0 42 16.5 76t45 58t66.5 37t80 13q22 0 39.5 -4.5
t30 -10.5t20 -12t9.5 -8v35q0 34 -27 45t-68 11q-45 0 -82.5 -15t-66.5 -31zM258 111q23 0 40 11t24 22v38q-1 2 -4.5 6.5t-10.5 9.5t-17.5 9t-26.5 4q-30 0 -44 -15t-14 -38q0 -21 15 -34t38 -13z" />
    <glyph glyph-name="b" unicode="b" horiz-adv-x="656" 
d="M31 0v130h42v489h-42v131h242v-289q8 10 22.5 18.5t32.5 15t38 10t38 3.5q58 0 101 -22t71.5 -58.5t43 -84t14.5 -97.5q-1 -58 -17.5 -105.5t-46.5 -81t-72 -52t-95 -18.5q-29 0 -49 3.5t-35 10t-26.5 14.5t-21.5 17l-15 -34h-225zM414 244q0 22 -5 44.5t-14.5 39.5
t-23 28t-29.5 11q-28 0 -49.5 -31t-21.5 -85q0 -28 5 -52t14.5 -42t23 -28t29.5 -10q32 0 51.5 34t19.5 91z" />
    <glyph glyph-name="c" unicode="c" horiz-adv-x="531" 
d="M360 274q-1 18 -4.5 36.5t-10.5 34t-19 25t-29 9.5q-22 0 -38.5 -11t-27.5 -29t-16.5 -41t-5.5 -47q0 -51 28 -84.5t78 -33.5q38 0 66 15.5t52 41.5l88 -102q-18 -19 -43 -37.5t-56.5 -32.5t-68.5 -23t-77 -9q-55 0 -105 16.5t-87.5 50t-60 83.5t-22.5 117
q0 66 20.5 114.5t54.5 80t78.5 46.5t92.5 15q25 0 45.5 -6t36 -15t26.5 -19t17 -17l17 48h118v-226h-147z" />
    <glyph glyph-name="d" unicode="d" horiz-adv-x="634" 
d="M368 620h-46v130h249v-620h48v-130h-234l-17 37q-5 -5 -15.5 -12.5t-26.5 -15t-37 -13t-47 -5.5q-53 0 -96 21.5t-73 58t-46.5 84.5t-16.5 100q0 58 19 105.5t51 80.5t74 51t88 18q53 0 82.5 -14.5t43.5 -23.5v148zM225 255q0 -23 5 -45t14.5 -39t22.5 -28t30 -11
q28 0 49.5 31t21.5 85q0 28 -5 52t-14.5 42t-23 28t-29.5 10q-32 0 -51.5 -34t-19.5 -91z" />
    <glyph glyph-name="e" unicode="e" horiz-adv-x="542" 
d="M527 69q-56 -48 -118 -67.5t-140 -19.5q-47 0 -94 15.5t-84.5 48t-61.5 84t-24 123.5q0 61 21 109.5t57 82.5t85 51.5t106 17.5q62 0 109.5 -18t79.5 -50t48 -75.5t16 -94.5q0 -20 -3 -39.5t-9 -36.5h-315q2 -10 6.5 -24t15.5 -27t30 -22t51 -9q13 0 28.5 1t33.5 6
t38 14.5t40 26.5zM280 379q-23 0 -37.5 -9t-23 -21.5t-12 -26.5t-4.5 -23h151q0 14 -3 28.5t-10.5 26t-22 18.5t-38.5 7z" />
    <glyph glyph-name="f" unicode="f" horiz-adv-x="386" 
d="M351 628q-8 4 -21.5 7t-33.5 3q-32 0 -32 -53v-85h91v-130h-91v-239h60v-131h-298v131h40v239h-41v130h41v85q0 21 5.5 52.5t26 60.5t59.5 49.5t107 20.5q19 0 41 -2t42 -5.5t37 -8t27 -9.5z" />
    <glyph glyph-name="g" unicode="g" horiz-adv-x="640" 
d="M77 -6q9 -8 26.5 -18.5t40.5 -21t50.5 -17.5t56.5 -7q34 0 56 9t35.5 22.5t19 30t5.5 32.5v34q-5 -7 -15 -16.5t-24.5 -18t-34 -14.5t-43.5 -6q-65 0 -110.5 21.5t-74 56.5t-42 80t-13.5 92q0 58 16 105.5t47.5 81t78.5 52t109 18.5q33 0 62 -13t44 -28l20 31h238v-131
h-60v-299q0 -62 -19 -112.5t-58 -86.5t-97.5 -56t-137.5 -20q-41 0 -76.5 9t-65 22.5t-51.5 28.5t-36 28zM223 255q0 -23 5 -45t14.5 -39t22.5 -28t30 -11q28 0 49.5 31t21.5 85q0 28 -5 52t-14.5 42t-23 28t-29.5 10q-32 0 -51.5 -34t-19.5 -91z" />
    <glyph glyph-name="h" unicode="h" horiz-adv-x="661" 
d="M339 0h-314v131h42v489h-42v130h242v-312q4 7 19 20t36.5 26.5t48 23.5t53.5 10q58 0 92.5 -19.5t53 -51t24 -71t5.5 -78.5v-167h47v-131h-257v272q0 13 -1 29t-6.5 30t-17.5 24t-34 10q-19 0 -31.5 -8.5t-19.5 -22t-9.5 -30t-2.5 -32.5v-141h72v-131z" />
    <glyph glyph-name="i" unicode="i" horiz-adv-x="330" 
d="M305 0h-280v131h42v239h-42v130h232v-369h48v-131zM53 646q0 17 7 35t20.5 33t34 24.5t46.5 9.5t46.5 -9.5t34.5 -24.5t21.5 -33t7.5 -35q0 -42 -28 -71.5t-82 -29.5q-24 0 -43.5 9t-34 23.5t-22.5 32.5t-8 36z" />
    <glyph glyph-name="j" unicode="j" horiz-adv-x="360" 
d="M128 370h-42v130h232v-430q0 -47 -10 -96t-42 -90t-92 -67t-160 -26v134q43 0 66.5 16t34 38.5t12 47.5t1.5 43v300zM114 646q0 17 7 35t20.5 33t34 24.5t46.5 9.5t46.5 -9.5t34.5 -24.5t21.5 -33t7.5 -35q0 -42 -28 -71.5t-82 -29.5q-24 0 -43.5 9t-34 23.5t-22.5 32.5
t-8 36z" />
    <glyph glyph-name="k" unicode="k" horiz-adv-x="654" 
d="M38 0v130h41v489h-41v131h231v-452l116 69h-72v132h280v-132h-77l-68 -43l135 -193h50v-131h-296v131h42l-76 108l-35 -24v-84h37v-131h-267z" />
    <glyph glyph-name="l" unicode="l" horiz-adv-x="332" 
d="M317 0h-292v131h43v490h-42v129h232v-619h59v-131z" />
    <glyph glyph-name="m" unicode="m" horiz-adv-x="908" 
d="M322 0h-297v131h42v236h-42v132h189l22 -59q6 7 17.5 19.5t27.5 24.5t36 20.5t44 8.5q38 0 63.5 -8t42.5 -19t27 -23.5t16 -21.5q23 26 59 49t88 23q61 0 97.5 -20.5t56.5 -54t26.5 -76.5t6.5 -89v-138h49v-135h-254v245q0 10 0.5 21t0.5 23q0 15 -1.5 29.5t-5.5 25.5
t-11.5 18t-20.5 7q-32 0 -42.5 -20.5t-10.5 -52.5v-162h60v-134h-259v255q0 61 -6 87.5t-36 26.5q-24 0 -34.5 -14.5t-10.5 -45.5v-178h60v-131z" />
    <glyph glyph-name="n" unicode="n" horiz-adv-x="647" 
d="M333 0h-308v131h42v239h-42v130h213l23 -62q26 35 60.5 57.5t82.5 22.5q58 0 93.5 -19.5t55 -51t26 -71t6.5 -78.5v-167h47v-131h-252v273q0 13 -0.5 29t-5.5 30t-16.5 24t-33.5 10q-19 0 -31.5 -8.5t-19.5 -22t-9.5 -30t-2.5 -32.5v-142h72v-131z" />
    <glyph glyph-name="o" unicode="o" horiz-adv-x="574" 
d="M290 -13q-54 0 -104.5 16.5t-89.5 49.5t-62 83t-23 116q0 63 23.5 111.5t62 81.5t88 50t100.5 17q59 0 110 -18.5t88.5 -53t58.5 -84t21 -112.5q0 -62 -21.5 -109.5t-58.5 -80.5t-86.5 -50t-106.5 -17zM290 115q16 0 28.5 10t21.5 28t13.5 42.5t4.5 52.5t-5 52.5
t-14 42.5t-22.5 28.5t-31.5 10.5q-15 0 -27.5 -10t-21.5 -28t-14.5 -42t-5.5 -51q0 -62 21 -99t53 -37z" />
    <glyph glyph-name="p" unicode="p" horiz-adv-x="638" 
d="M413 244q0 22 -5 44.5t-14.5 39.5t-23 28t-29.5 11q-28 0 -49.5 -31t-21.5 -85q0 -28 5 -52t14.5 -42t23 -28t29.5 -10q32 0 51.5 34t19.5 91zM25 -73h42v440h-42v133h229l17 -35q7 5 18.5 12.5t26.5 14t34 11.5t42 5q58 0 102.5 -21t74 -57t44.5 -83.5t15 -100.5
q0 -60 -17.5 -107.5t-48 -80.5t-72.5 -51t-90 -18q-31 0 -54.5 5t-39 12t-24.5 13.5t-12 8.5v-101h54v-131h-299v131z" />
    <glyph glyph-name="q" unicode="q" horiz-adv-x="660" 
d="M383 257q0 22 -5 44.5t-14.5 39.5t-23 28t-29.5 11q-28 0 -49.5 -31t-21.5 -85q0 -28 5 -52t14.5 -42t23 -28t29.5 -10q32 0 51.5 34t19.5 91zM318 -99h65v132q-17 -14 -50 -28t-78 -14q-48 0 -90 18.5t-73 52.5t-49 82.5t-18 108.5q0 65 18.5 113t51 80t76 48t93.5 16
q49 0 80 -15t39 -25l19 30h233v-130h-49v-466h49v-134h-317v131z" />
    <glyph glyph-name="r" unicode="r" horiz-adv-x="414" 
d="M308 0h-283v131h44v239h-43v130h188l30 -64q10 18 21 34t28 28.5t42 19.5t64 7v-180q-68 0 -104.5 -22.5t-36.5 -88.5v-103h50v-131z" />
    <glyph glyph-name="s" unicode="s" horiz-adv-x="508" 
d="M15 0v180h134q0 -20 12.5 -33t29.5 -20.5t35 -10.5t29 -3q15 0 29.5 6.5t14.5 27.5q0 14 -20.5 22.5t-52 16.5t-67.5 19t-67.5 30.5t-52 51t-20.5 80.5q0 38 17.5 65.5t44 45t57 26t57.5 8.5q51 0 92 -23t57 -55l8 66h123v-180h-130q0 16 -9 29.5t-23.5 24t-32.5 16.5
t-37 6q-16 0 -27.5 -8.5t-11.5 -27.5q0 -17 21 -27t52.5 -19.5t68.5 -21t68.5 -30.5t52.5 -48.5t21 -75.5q0 -35 -15.5 -63t-41 -47.5t-59.5 -29.5t-70 -10q-54 0 -94.5 22t-58.5 51l-9 -61h-125z" />
    <glyph glyph-name="t" unicode="t" horiz-adv-x="363" 
d="M15 500h54v92l184 59v-151h95v-130h-95v-178q0 -7 -0.5 -14t-0.5 -15q0 -20 5.5 -35.5t27.5 -15.5q10 0 29.5 5.5t33.5 11.5v-128q-11 -5 -28 -8.5t-35 -5.5t-33.5 -3.5t-24.5 -1.5q-56 0 -87.5 15t-46.5 42t-19 66t-5 87v178h-54v130z" />
    <glyph glyph-name="u" unicode="u" horiz-adv-x="631" 
d="M15 500h242v-241q0 -65 11.5 -95.5t42.5 -30.5q26 0 44.5 21t18.5 55v159h-66v132h259v-367h49v-133h-189l-27 63q-8 -9 -19.5 -22.5t-28 -25.5t-39.5 -20.5t-55 -8.5q-57 0 -95.5 15t-62 45t-33.5 76t-10 108v138h-42v132z" />
    <glyph glyph-name="v" unicode="v" horiz-adv-x="613" 
d="M330 162q0 8 2.5 20.5t6.5 27.5t9.5 31t11.5 31l48 101h-53v127h258v-127h-52l-173 -373h-155l-186 373h-47v127h304v-127h-50l46 -106q10 -29 17 -59t9 -46h4z" />
    <glyph glyph-name="w" unicode="w" horiz-adv-x="872" 
d="M284 153q1 15 3.5 40t7 55.5t12 66t18.5 73.5l32 112h185l38 -130q9 -29 16 -62t13 -63t9.5 -54.5t4.5 -37.5h2q1 12 3.5 30.5t5.5 40.5t7.5 44.5t10.5 42.5l17 59h-41v130h244v-130h-41l-117 -370h-211l-69 226l-72 -226h-206l-113 370h-43v130h269v-130h-34l22 -73
q5 -18 9.5 -38.5t7.5 -40.5t5 -37t3 -28h2z" />
    <glyph glyph-name="x" unicode="x" horiz-adv-x="649" 
d="M375 500h255v-125h-66l-106 -107l126 -144h47v-124h-319v124h47l-76 81l-72 -81h65v-124h-256v124h67l102 115l-124 136h-45v125h324v-125h-47l70 -76l75 76h-67v125z" />
    <glyph glyph-name="y" unicode="y" horiz-adv-x="580" 
d="M382 373h-46v127h254v-124h-48l-190 -462q-11 -24 -25.5 -49t-38.5 -45.5t-60.5 -33.5t-90.5 -13q-39 2 -68.5 16t-52.5 34l75 118q14 -13 31.5 -24t34.5 -11q20 0 34.5 17t21.5 37l14 42l-195 370h-41v128h308v-127h-47l65 -156z" />
    <glyph glyph-name="z" unicode="z" horiz-adv-x="553" 
d="M25 300v200h495v-129l-238 -240h105v68h141v-199h-503v131l241 240h-111v-71h-130z" />
    <glyph glyph-name="braceleft" unicode="{" horiz-adv-x="429" 
d="M289 -156q-32 0 -58.5 8.5t-46 27t-30 49t-10.5 75.5v156q0 21 -3.5 33t-11.5 18.5t-21 8.5t-31 2v134q40 0 53.5 12.5t13.5 47.5v157q0 90 38 124.5t107 34.5h79v-151h-23q-17 0 -26.5 -6t-14 -14t-6 -17t-1.5 -16v-151q0 -34 -9 -52t-21 -26t-24 -9t-19 -1v-2
q7 0 19 -1.5t24 -9.5t21 -25.5t9 -48.5v-154q0 -7 2 -16t7 -17.5t14.5 -14t24.5 -5.5h23v-151h-79z" />
    <glyph glyph-name="bar" unicode="|" horiz-adv-x="222" 
d="M28 -59v808h166v-808h-166z" />
    <glyph glyph-name="braceright" unicode="}" horiz-adv-x="432" 
d="M78 -5h23q15 0 24.5 5.5t14.5 14t7 17.5t2 16v154q0 31 9 48.5t21 25.5t24 9.5t19 1.5v2q-7 0 -19 1t-24 9t-21 26t-9 52v151q0 7 -1.5 16t-6 17t-14.5 14t-26 6h-23v151h79q69 0 107 -34.5t38 -124.5v-157q0 -35 13.5 -47.5t53.5 -12.5v-134q-19 0 -31.5 -2t-20.5 -8.5
t-11.5 -18.5t-3.5 -33v-156q0 -45 -10.5 -75.5t-30 -49t-46 -27t-58.5 -8.5h-79v151z" />
    <glyph glyph-name="asciitilde" unicode="~" horiz-adv-x="666" 
d="M568 248q-42 -56 -128 -56q-39 0 -66.5 9t-50.5 20t-44.5 20t-48.5 9q-28 0 -49 -9t-43 -28l-38 154q18 17 48 32.5t78 15.5q34 0 59.5 -9t49 -19.5t48 -19.5t54.5 -9q28 0 53.5 12t43.5 34z" />
    <glyph glyph-name="uni00A0" unicode="&#xa0;" horiz-adv-x="0" 
 />
    <glyph glyph-name="exclamdown" unicode="&#xa1;" horiz-adv-x="308" 
d="M271 400q0 -19 -7.5 -38t-22.5 -34t-36 -24.5t-48 -9.5t-48.5 8.5t-37.5 23t-24.5 34t-8.5 40.5q0 42 32 72.5t87 30.5q24 0 44.5 -9t36 -23t24.5 -33t9 -38zM267 -7v-190h-239v190l53 252h132z" />
    <glyph glyph-name="cent" unicode="&#xa2;" horiz-adv-x="531" 
d="M246 -59v46q-50 4 -94.5 23t-78 52t-53 81t-19.5 110q0 66 20.5 114t54 79.5t78 47t92.5 15.5v38h84v-60q15 -9 25 -18.5t17 -16.5l17 48h118v-226h-147q-2 26 -8.5 51.5t-21.5 40.5v-233q32 3 56.5 18t46.5 39l88 -102q-29 -32 -78.5 -59.5t-112.5 -37.5v-50h-84z
M209 251q0 -29 9.5 -53t27.5 -40v200q-19 -18 -28 -46.5t-9 -60.5z" />
    <glyph glyph-name="sterling" unicode="&#xa3;" horiz-adv-x="746" 
d="M29 360h75q3 82 28 147t64 110.5t87 69.5t96 24q37 0 64.5 -9t46.5 -20.5t29.5 -23t13.5 -15.5l23 56h157v-284h-179q-1 24 -8 47t-19.5 40.5t-32 28t-46.5 10.5q-26 0 -47 -14t-36.5 -38.5t-24.5 -57.5t-11 -71h168v-133h-168v-94h239v93h173v-226h-690v133h73v94h-75
v133z" />
    <glyph glyph-name="currency" unicode="&#xa4;" horiz-adv-x="785" 
d="M393 77q-60 0 -115 20t-95 61l-42 -57l-126 81l100 131q-1 7 -1 14v15v13.5t1 12.5l-100 133l126 79l44 -59q39 40 92.5 60.5t110.5 20.5q65 0 118 -22t91 -60l43 57l126 -81l-102 -134q1 -6 1.5 -12t0.5 -12q0 -8 -0.5 -14.5t-0.5 -13.5l101 -133l-126 -79l-43 57
q-38 -38 -90.5 -58t-113.5 -20zM393 205q16 0 28.5 10t21.5 28t13.5 42.5t4.5 52.5t-5 52.5t-14 42.5t-22.5 28.5t-31.5 10.5q-15 0 -27.5 -10t-21.5 -28t-14.5 -42t-5.5 -51q0 -62 21 -99t53 -37z" />
    <glyph glyph-name="yen" unicode="&#xa5;" horiz-adv-x="669" 
d="M141 400h66l-168 171h-49v128h342v-128h-52l89 -91h4l92 91h-55v128h269v-128h-54l-159 -171h76v-77h-102v-51h102v-76h-102v-66h56v-130h-320v130h57v66h-92v76h92v51h-92v77z" />
    <glyph glyph-name="brokenbar" unicode="&#xa6;" horiz-adv-x="222" 
d="M28 -59v316h166v-316h-166zM194 463h-166v286h166v-286z" />
    <glyph glyph-name="section" unicode="&#xa7;" horiz-adv-x="480" 
d="M460 296q0 -30 -9.5 -52t-24 -36t-31 -22.5t-31.5 -11.5q10 -6 22 -15.5t22.5 -24t17 -34t6.5 -44.5q0 -49 -18 -80t-48.5 -48t-70 -23.5t-82.5 -6.5q-59 0 -102.5 7t-72.5 17v139q40 -11 82.5 -20t69.5 -9q23 0 38.5 6.5t15.5 26.5q0 16 -17.5 25.5t-42.5 20.5l-48 21
q-21 9 -42 21t-37.5 28.5t-26.5 39t-10 53.5q0 28 9.5 47.5t24.5 33t33 21.5t35 13q-12 6 -25 15.5t-24 25t-18 37.5t-7 51q0 43 18 72.5t49 47t73 25t89 7.5q64 0 102.5 -10.5t62.5 -19.5v-135q-38 10 -80.5 20t-81.5 10q-20 0 -32 -6.5t-12 -24.5q0 -17 20.5 -27t49.5 -23
l53 -25q19 -9 37.5 -20t32.5 -26.5t22.5 -36.5t8.5 -50zM289 276q0 22 -8 32.5t-25 18.5l-30 14q-11 -7 -22 -20t-11 -30q0 -20 12 -32t28 -19l30 -13q8 7 17 19.5t9 29.5z" />
    <glyph glyph-name="dieresis" unicode="&#xa8;" horiz-adv-x="586" 
d="M328 646q0 17 7 35t20.5 33t34 24.5t46.5 9.5t46.5 -9.5t34.5 -24.5t21.5 -33t7.5 -35q0 -42 -28 -71.5t-82 -29.5q-24 0 -43.5 9t-34 23.5t-22.5 32.5t-8 36zM53 646q0 17 7 35t20.5 33t34 24.5t46.5 9.5t46.5 -9.5t34.5 -24.5t21.5 -33t7.5 -35q0 -42 -28 -71.5
t-82 -29.5q-24 0 -43.5 9t-34 23.5t-22.5 32.5t-8 36z" />
    <glyph glyph-name="copyright" unicode="&#xa9;" horiz-adv-x="780" 
d="M755 345q0 -94 -28 -166t-77 -120.5t-115.5 -73.5t-144.5 -25t-144.5 24t-115.5 72t-77 120.5t-28 168.5q0 95 28 167t77 120.5t115.5 73t144.5 24.5t144.5 -25.5t115.5 -74t77 -120.5t28 -165zM605 345q0 128 -54.5 196.5t-160.5 68.5t-160.5 -64.5t-54.5 -200.5
q0 -68 15.5 -118t43.5 -82.5t68 -48.5t88 -16q100 0 157.5 65t57.5 200zM496 163q-15 -6 -34 -10.5t-47 -4.5q-27 0 -58.5 7t-58.5 28t-45.5 60t-18.5 104q0 63 19 101.5t47 59.5t61 28.5t60 7.5q28 0 46 -5.5t29 -10.5v-95q-15 5 -31 10t-39 5q-32 0 -51 -22t-19 -79
q0 -48 16 -74t48 -26q22 0 41 4t35 10v-98z" />
    <glyph glyph-name="ordfeminine" unicode="&#xaa;" horiz-adv-x="450" 
d="M27 651q11 7 28.5 16t38.5 17.5t45.5 14.5t50.5 6q34 0 70 -7t66 -25t49 -48t19 -75v-146h45v-96h-161l-18 34q-11 -15 -24 -24t-27 -14.5t-27 -7.5t-23 -2q-27 0 -53.5 7.5t-47.5 22.5t-34 38.5t-13 56.5q0 32 12.5 57.5t33.5 43.5t49.5 27.5t60.5 9.5q33 0 52.5 -11.5
t21.5 -14.5v26q0 26 -20 34t-51 8q-33 0 -61.5 -11.5t-50.5 -23.5zM193 391q17 0 30 8.5t18 16.5v28q-2 3 -11 12.5t-33 9.5q-23 0 -33 -11t-10 -29q0 -16 11 -25.5t28 -9.5zM12 228h425v-133h-425v133z" />
    <glyph glyph-name="guillemotleft" unicode="&#xab;" horiz-adv-x="564" 
d="M170 8l-170 247l170 248l115 -78l-115 -170l115 -170zM450 8l-165 247l165 248l115 -78l-115 -170l115 -170z" />
    <glyph glyph-name="logicalnot" unicode="&#xac;" horiz-adv-x="610" 
d="M410 99v161h-380v160h550v-321h-170z" />
    <glyph glyph-name="uni00AD" unicode="&#xad;" horiz-adv-x="447" 
d="M32 305h377v-133h-377v133z" />
    <glyph glyph-name="registered" unicode="&#xae;" horiz-adv-x="780" 
d="M755 345q0 -94 -28 -166t-77 -120.5t-115.5 -73.5t-144.5 -25t-144.5 24t-115.5 72t-77 120.5t-28 168.5q0 95 28 167t77 120.5t115.5 73t144.5 24.5t144.5 -25.5t115.5 -74t77 -120.5t28 -165zM605 345q0 128 -54.5 196.5t-160.5 68.5t-160.5 -64.5t-54.5 -200.5
q0 -68 15.5 -118t43.5 -82.5t68 -48.5t88 -16q100 0 157.5 65t57.5 200zM426 167l-11 59q-5 26 -10.5 43.5t-19.5 31.5l-16 -3v-131h-111v370h121q29 0 57.5 -2.5t51.5 -13.5t37 -33t14 -60q0 -39 -20 -60.5t-54 -36.5q25 -15 37 -37.5t21 -48.5l26 -78h-123zM427 423
q0 30 -13 36t-34 6h-11v-101q18 4 29.5 8t17.5 10t8.5 15.5t2.5 25.5z" />
    <glyph glyph-name="macron" unicode="&#xaf;" horiz-adv-x="647" 
d="M27 698h558v-133h-558v133z" />
    <glyph glyph-name="degree" unicode="&#xb0;" horiz-adv-x="574" 
d="M525 514q0 -44 -21 -78.5t-55 -58.5t-77 -36.5t-86 -12.5q-59 0 -103.5 15t-74.5 41.5t-45.5 62.5t-15.5 78q0 44 21 78.5t55 58.5t77 36.5t86 12.5q57 0 101.5 -15t75 -41.5t46.5 -62.5t16 -78zM356 537q0 11 -7.5 20t-18.5 15t-23.5 9.5t-22.5 3.5q-27 0 -49 -19
t-22 -49q0 -28 23.5 -45.5t51.5 -17.5q27 0 49 19t22 49q0 7 -3 15z" />
    <glyph glyph-name="plusminus" unicode="&#xb1;" horiz-adv-x="722" 
d="M34 64v158h629v-158h-629zM430 458v-165h-163v165h-233v158h233v157h163v-157h233v-158h-233z" />
    <glyph glyph-name="twosuperior" unicode="&#xb2;" horiz-adv-x="354" 
d="M42 633q65 74 156 74q30 0 56 -9t45.5 -26t30.5 -41.5t11 -54.5q0 -26 -6 -44.5t-18 -33.5t-30 -28.5t-42 -28.5q-11 -7 -24.5 -17t-26.5 -21t-23.5 -22t-15.5 -20h105v48h101v-128h-324v87q12 20 22 34t19.5 25.5t20.5 21t26 21.5q16 14 34.5 26.5t34.5 24t26.5 23.5
t10.5 26q0 23 -15 31.5t-36 8.5q-24 0 -41.5 -16t-31.5 -30z" />
    <glyph glyph-name="threesuperior" unicode="&#xb3;" horiz-adv-x="344" 
d="M158 274q-21 0 -42.5 5.5t-40.5 15t-33.5 22t-23.5 25.5l61 64q17 -17 35 -28t44 -11t40 11.5t14 34.5q0 24 -13 34t-36 10h-45v71h43q22 0 36.5 10.5t14.5 30.5q0 25 -16.5 36.5t-35.5 11.5q-17 0 -36 -9.5t-35 -26.5l-58 70q8 9 21.5 19t30.5 18.5t36.5 14t40.5 5.5
q73 0 113 -34.5t40 -92.5q0 -31 -16.5 -49t-28.5 -27q7 -5 16.5 -13.5t18.5 -21t15 -28.5t6 -36q0 -33 -14.5 -58t-38 -41.5t-53.5 -24.5t-60 -8z" />
    <glyph glyph-name="acute" unicode="&#xb4;" horiz-adv-x="509" 
d="M237 701l-151 -142h-125l78 142h198z" />
    <glyph glyph-name="mu" unicode="&#xb5;" horiz-adv-x="631" 
d="M57 368h-42v132h242v-241q0 -65 11.5 -95.5t42.5 -30.5q26 0 44.5 21t18.5 55v159h-66v132h259v-367h49v-133h-189l-24 48q0 -8 -7.5 -19t-20 -21t-28.5 -16.5t-33 -6.5t-32.5 9.5t-24.5 34.5q-8 -38 -28.5 -80t-58 -77t-93.5 -58t-134 -23v134q43 0 66.5 16t34 38.5
t12 47.5t1.5 43v298z" />
    <glyph glyph-name="paragraph" unicode="&#xb6;" horiz-adv-x="627" 
d="M455 -126v733h-69v-733h-117v467q-115 0 -167.5 47t-52.5 132q0 51 17.5 85.5t49 54.5t75 28.5t95.5 8.5h286v-823h-117z" />
    <glyph glyph-name="periodcentered" unicode="&#xb7;" horiz-adv-x="254" 
d="M15 402q0 19 7 38.5t21.5 36t35 27t47.5 10.5t48 -10.5t35.5 -27t22 -36t7.5 -38.5q0 -45 -29.5 -75.5t-83.5 -30.5q-23 0 -43.5 9t-35.5 24t-23.5 34t-8.5 39z" />
    <glyph glyph-name="cedilla" unicode="&#xb8;" horiz-adv-x="429" 
d="M340 -98q0 -18 -6.5 -36.5t-20.5 -33t-37 -23.5t-57 -9q-23 0 -47.5 6t-40.5 14l32 62q24 -11 48 -11q33 0 33 24t-33 24q-9 0 -16 -0.5t-12 -1.5l-10 17l27 86l79 -10l-16 -35q36 -3 56.5 -23.5t20.5 -49.5z" />
    <glyph glyph-name="onesuperior" unicode="&#xb9;" horiz-adv-x="311" 
d="M14 619q13 6 24.5 12t24 14t26 20t30.5 32h107v-339h56v-80h-240v80h60v222l-60 -28z" />
    <glyph glyph-name="ordmasculine" unicode="&#xba;" horiz-adv-x="430" 
d="M217 312q-41 0 -78.5 12.5t-66.5 37t-46.5 62t-17.5 87.5q0 47 17.5 83.5t46.5 61t66 37.5t76 13q45 0 83 -14t65.5 -40t43.5 -63.5t16 -84.5q0 -46 -16 -82t-44 -60.5t-65.5 -37t-79.5 -12.5zM217 408q25 0 38 29t13 71t-14 71t-40 29q-23 0 -37.5 -28t-14.5 -70
q0 -46 16 -74t39 -28zM12 228h410v-133h-410v133z" />
    <glyph glyph-name="guillemotright" unicode="&#xbb;" horiz-adv-x="564" 
d="M115 8l-115 77l115 170l-115 170l115 78l170 -248zM395 8l-110 77l110 170l-115 170l115 78l170 -248z" />
    <glyph glyph-name="onequarter" unicode="&#xbc;" horiz-adv-x="827" 
d="M45 620q13 6 24.5 12t24 14t26 20t30.5 32h107v-339h56v-80h-240v80h60v222l-60 -28zM450 204l173 215h124v-236h32v-65h-32v-39h32v-79h-194v79h38v39h-173v86zM623 183v111l-89 -111h89zM577 750h117l-415 -805h-117z" />
    <glyph glyph-name="onehalf" unicode="&#xbd;" horiz-adv-x="875" 
d="M45 620q13 6 24.5 12t24 14t26 20t30.5 32h107v-339h56v-80h-240v80h60v222l-60 -28zM577 750h117l-415 -805h-117zM514 352q65 74 156 74q30 0 56 -9t45.5 -26t30.5 -41.5t11 -54.5q0 -26 -6 -44.5t-18 -33.5t-30 -28.5t-42 -28.5q-11 -7 -24.5 -17t-26.5 -21t-23.5 -22
t-15.5 -20h105v48h101v-128h-324v87q12 20 22 34t19.5 25.5t20.5 21t26 21.5q16 14 34.5 26.5t34.5 24t26.5 23.5t10.5 26q0 23 -15 31.5t-36 8.5q-24 0 -41.5 -16t-31.5 -30z" />
    <glyph glyph-name="threequarters" unicode="&#xbe;" horiz-adv-x="827" 
d="M450 204l173 215h124v-236h32v-65h-32v-39h32v-79h-194v79h38v39h-173v86zM623 183v111l-89 -111h89zM577 750h117l-415 -805h-117zM180 275q-21 0 -42.5 5.5t-40.5 15t-33.5 22t-23.5 25.5l61 64q17 -17 35 -28t44 -11t40 11.5t14 34.5q0 24 -13 34t-36 10h-45v71h43
q22 0 36.5 10.5t14.5 30.5q0 25 -16.5 36.5t-35.5 11.5q-17 0 -36 -9.5t-35 -26.5l-58 70q8 9 21.5 19t30.5 18.5t36.5 14t40.5 5.5q73 0 113 -34.5t40 -92.5q0 -31 -16.5 -49t-28.5 -27q7 -5 16.5 -13.5t18.5 -21t15 -28.5t6 -36q0 -33 -14.5 -58t-38 -41.5t-53.5 -24.5
t-60 -8z" />
    <glyph glyph-name="questiondown" unicode="&#xbf;" horiz-adv-x="520" 
d="M500 -86q-53 -61 -119 -95t-141 -34q-50 0 -93.5 13t-75.5 39t-50.5 64t-18.5 89q0 32 12 57t29.5 45t38 35.5t38 29.5t29.5 27t12 28v55h185l1 -80q0 -35 -24.5 -62.5t-54.5 -51t-55 -44t-25 -41.5q0 -14 6.5 -23.5t17 -14.5t24 -7t26.5 -2q16 0 33.5 7t35 19t33 26.5
t28.5 29.5zM373 398q0 -19 -7.5 -38t-22.5 -34t-36 -24.5t-48 -9.5t-48.5 8.5t-37.5 23t-24.5 34t-8.5 40.5q0 42 32 72.5t87 30.5q24 0 45 -9t36.5 -23t24 -33t8.5 -38z" />
    <glyph glyph-name="Agrave" unicode="&#xc0;" horiz-adv-x="823" 
d="M808 0h-401v131h95l-21 68h-205l-21 -68h78v-131h-318v131h68l135 439h-41v129h384l177 -568h70v-131zM313 319h131l-66 216zM410 900l78 -142h-125l-151 142h198z" />
    <glyph glyph-name="Aacute" unicode="&#xc1;" horiz-adv-x="823" 
d="M808 0h-401v131h95l-21 68h-205l-21 -68h78v-131h-318v131h68l135 439h-41v129h384l177 -568h70v-131zM313 319h131l-66 216zM594 900l-151 -142h-125l78 142h198z" />
    <glyph glyph-name="Acircumflex" unicode="&#xc2;" horiz-adv-x="823" 
d="M808 0h-401v131h95l-21 68h-205l-21 -68h78v-131h-318v131h68l135 439h-41v129h384l177 -568h70v-131zM313 319h131l-66 216zM529 745l-151 70l-123 -70l-50 93l191 119l189 -119z" />
    <glyph glyph-name="Atilde" unicode="&#xc3;" horiz-adv-x="823" 
d="M808 0h-401v131h95l-21 68h-205l-21 -68h78v-131h-318v131h68l135 439h-41v129h384l177 -568h70v-131zM313 319h131l-66 216zM597 805q-22 -27 -51 -41t-72 -14q-23 0 -38.5 6t-29.5 12.5t-29 12.5t-37 6q-40 0 -70 -30l-44 100q23 29 51 44t66 15q24 0 40 -5.5t30.5 -12
t29.5 -12t36 -5.5q22 0 42.5 9t30.5 20z" />
    <glyph glyph-name="Adieresis" unicode="&#xc4;" horiz-adv-x="823" 
d="M808 0h-401v131h95l-21 68h-205l-21 -68h78v-131h-318v131h68l135 439h-41v129h384l177 -568h70v-131zM313 319h131l-66 216zM440 845q0 17 7 35t20.5 33t34 24.5t46.5 9.5t46.5 -9.5t34.5 -24.5t21.5 -33t7.5 -35q0 -42 -28 -71.5t-82 -29.5q-24 0 -43.5 9t-34 23.5
t-22.5 32.5t-8 36zM165 845q0 17 7 35t20.5 33t34 24.5t46.5 9.5t46.5 -9.5t34.5 -24.5t21.5 -33t7.5 -35q0 -42 -28 -71.5t-82 -29.5q-24 0 -43.5 9t-34 23.5t-22.5 32.5t-8 36z" />
    <glyph glyph-name="Aring" unicode="&#xc5;" horiz-adv-x="823" 
d="M427 822q0 18 -12 30t-27 12q-20 0 -32 -12t-12 -30t12 -30t29 -12q19 0 30.5 12t11.5 30zM502 822q0 -22 -9.5 -41t-25.5 -33.5t-37 -23t-43 -8.5q-25 0 -46.5 8.5t-37.5 23t-25 33.5t-9 41t9.5 41t26 33.5t37.5 23t45 8.5t44.5 -8.5t36.5 -23t25 -33.5t9 -41zM808 0
h-401v131h95l-21 68h-205l-21 -68h78v-131h-318v131h68l135 439h-41v129h384l177 -568h70v-131zM313 319h131l-66 216z" />
    <glyph glyph-name="AE" unicode="&#xc6;" horiz-adv-x="1162" 
d="M330 699h783v-221h-173v89h-160v-138h190v-133h-190v-163h160v93h173v-226h-603v133h63v66h-219l-41 -68h77v-131h-347v131h68l260 439h-41v129zM573 319v251l-148 -251h148z" />
    <glyph glyph-name="Ccedilla" unicode="&#xc7;" horiz-adv-x="686" 
d="M447 -119q0 -18 -6.5 -36.5t-20.5 -33t-37 -23.5t-57 -9q-23 0 -47.5 6t-40.5 14l32 62q24 -11 48 -11q33 0 33 24t-33 24q-9 0 -16 -0.5t-12 -1.5l-10 17l23 76q-66 9 -119 37.5t-90.5 73.5t-58 106.5t-20.5 136.5q0 86 29 154.5t74 116t98.5 72.5t102.5 25
q37 0 64.5 -9t46.5 -20.5t29.5 -23t13.5 -15.5l23 56h157v-284h-179q-1 24 -8 47t-19.5 40.5t-32 28t-46.5 10.5t-49 -15.5t-37.5 -42.5t-24 -63t-8.5 -77q0 -37 9.5 -71t28 -60t45.5 -41.5t63 -15.5q31 0 59 14t49 31.5t34.5 33t16.5 19.5l117 -128q-24 -27 -55 -51.5
t-67 -43.5t-77.5 -31t-87.5 -14l-14 -31q36 -3 56.5 -23.5t20.5 -49.5z" />
    <glyph glyph-name="Egrave" unicode="&#xc8;" horiz-adv-x="653" 
d="M25 699h603v-221h-173v89h-160v-138h190v-133h-190v-163h160v93h173v-226h-603v133h63v434h-63v132zM386 900l78 -142h-125l-151 142h198z" />
    <glyph glyph-name="Eacute" unicode="&#xc9;" horiz-adv-x="653" 
d="M25 699h603v-221h-173v89h-160v-138h190v-133h-190v-163h160v93h173v-226h-603v133h63v434h-63v132zM509 900l-151 -142h-125l78 142h198z" />
    <glyph glyph-name="Ecircumflex" unicode="&#xca;" horiz-adv-x="653" 
d="M25 699h603v-221h-173v89h-160v-138h190v-133h-190v-163h160v93h173v-226h-603v133h63v434h-63v132zM444 745l-139 70l-135 -70l-50 93l191 119l189 -119z" />
    <glyph glyph-name="Edieresis" unicode="&#xcb;" horiz-adv-x="653" 
d="M25 699h603v-221h-173v89h-160v-138h190v-133h-190v-163h160v93h173v-226h-603v133h63v434h-63v132zM355 845q0 17 7 35t20.5 33t34 24.5t46.5 9.5t46.5 -9.5t34.5 -24.5t21.5 -33t7.5 -35q0 -42 -28 -71.5t-82 -29.5q-24 0 -43.5 9t-34 23.5t-22.5 32.5t-8 36zM80 845
q0 17 7 35t20.5 33t34 24.5t46.5 9.5t46.5 -9.5t34.5 -24.5t21.5 -33t7.5 -35q0 -42 -28 -71.5t-82 -29.5q-24 0 -43.5 9t-34 23.5t-22.5 32.5t-8 36z" />
    <glyph glyph-name="Igrave" unicode="&#xcc;" horiz-adv-x="382" 
d="M25 699h332v-132h-62v-434h62v-133h-332v133h63v434h-63v132zM251 900l78 -142h-125l-151 142h198z" />
    <glyph glyph-name="Iacute" unicode="&#xcd;" horiz-adv-x="382" 
d="M25 699h332v-132h-62v-434h62v-133h-332v133h63v434h-63v132zM374 900l-151 -142h-125l78 142h198z" />
    <glyph glyph-name="Icircumflex" unicode="&#xce;" horiz-adv-x="382" 
d="M25 699h332v-132h-62v-434h62v-133h-332v133h63v434h-63v132zM331 745l-139 70l-135 -70l-50 93l191 119l189 -119z" />
    <glyph glyph-name="Idieresis" unicode="&#xcf;" horiz-adv-x="382" 
d="M25 699h332v-132h-62v-434h62v-133h-332v133h63v434h-63v132zM220 845q0 17 7 35t20.5 33t34 24.5t46.5 9.5t46.5 -9.5t34.5 -24.5t21.5 -33t7.5 -35q0 -42 -28 -71.5t-82 -29.5q-24 0 -43.5 9t-34 23.5t-22.5 32.5t-8 36zM-55 845q0 17 7 35t20.5 33t34 24.5t46.5 9.5
t46.5 -9.5t34.5 -24.5t21.5 -33t7.5 -35q0 -42 -28 -71.5t-82 -29.5q-24 0 -43.5 9t-34 23.5t-22.5 32.5t-8 36z" />
    <glyph glyph-name="Eth" unicode="&#xd0;" horiz-adv-x="720" 
d="M42 418h45v149h-62v132h305q91 0 161.5 -26.5t119 -72t74 -107.5t25.5 -134q0 -172 -99 -265.5t-285 -93.5h-301v133h62v152h-45v133zM480 359q0 40 -8.5 77.5t-26.5 66.5t-46.5 46.5t-68.5 17.5h-38v-149h40v-133h-40v-152h38q40 0 68.5 18t46.5 48.5t26.5 71.5t8.5 88z
" />
    <glyph glyph-name="Ntilde" unicode="&#xd1;" horiz-adv-x="816" 
d="M791 570h-66v-570h-215l-255 381v-252h77v-129h-307v129h59v441h-58v129h287l246 -367v238h-69v129h301v-129zM593 805q-22 -27 -51 -41t-72 -14q-23 0 -38.5 6t-29.5 12.5t-29 12.5t-37 6q-40 0 -70 -30l-44 100q23 29 51 44t66 15q24 0 40 -5.5t30.5 -12t29.5 -12
t36 -5.5q22 0 42.5 9t30.5 20z" />
    <glyph glyph-name="Ograve" unicode="&#xd2;" 
d="M373 -18q-78 0 -144 23t-113.5 69t-74 115.5t-26.5 163.5q0 81 25.5 148t72 115.5t111 75t142.5 26.5q92 0 159.5 -26.5t112 -75t66 -117.5t21.5 -153q0 -85 -23 -152.5t-68 -114.5t-110.5 -72t-150.5 -25zM373 139q24 0 42.5 15t32 42t20.5 65t7 85q0 46 -6.5 85.5
t-20 69t-34.5 46.5t-50 17q-23 0 -41.5 -15.5t-32 -43.5t-21 -67t-7.5 -85q0 -49 8.5 -88.5t23 -67.5t35 -43t44.5 -15zM430 900l78 -142h-125l-151 142h198z" />
    <glyph glyph-name="Oacute" unicode="&#xd3;" 
d="M373 -18q-78 0 -144 23t-113.5 69t-74 115.5t-26.5 163.5q0 81 25.5 148t72 115.5t111 75t142.5 26.5q92 0 159.5 -26.5t112 -75t66 -117.5t21.5 -153q0 -85 -23 -152.5t-68 -114.5t-110.5 -72t-150.5 -25zM373 139q24 0 42.5 15t32 42t20.5 65t7 85q0 46 -6.5 85.5
t-20 69t-34.5 46.5t-50 17q-23 0 -41.5 -15.5t-32 -43.5t-21 -67t-7.5 -85q0 -49 8.5 -88.5t23 -67.5t35 -43t44.5 -15zM553 900l-151 -142h-125l78 142h198z" />
    <glyph glyph-name="Ocircumflex" unicode="&#xd4;" 
d="M373 -18q-78 0 -144 23t-113.5 69t-74 115.5t-26.5 163.5q0 81 25.5 148t72 115.5t111 75t142.5 26.5q92 0 159.5 -26.5t112 -75t66 -117.5t21.5 -153q0 -85 -23 -152.5t-68 -114.5t-110.5 -72t-150.5 -25zM373 139q24 0 42.5 15t32 42t20.5 65t7 85q0 46 -6.5 85.5
t-20 69t-34.5 46.5t-50 17q-23 0 -41.5 -15.5t-32 -43.5t-21 -67t-7.5 -85q0 -49 8.5 -88.5t23 -67.5t35 -43t44.5 -15zM487 745l-139 70l-135 -70l-50 93l191 119l189 -119z" />
    <glyph glyph-name="Otilde" unicode="&#xd5;" 
d="M373 -18q-78 0 -144 23t-113.5 69t-74 115.5t-26.5 163.5q0 81 25.5 148t72 115.5t111 75t142.5 26.5q92 0 159.5 -26.5t112 -75t66 -117.5t21.5 -153q0 -85 -23 -152.5t-68 -114.5t-110.5 -72t-150.5 -25zM373 139q24 0 42.5 15t32 42t20.5 65t7 85q0 46 -6.5 85.5
t-20 69t-34.5 46.5t-50 17q-23 0 -41.5 -15.5t-32 -43.5t-21 -67t-7.5 -85q0 -49 8.5 -88.5t23 -67.5t35 -43t44.5 -15zM555 805q-22 -27 -51 -41t-72 -14q-23 0 -38.5 6t-29.5 12.5t-29 12.5t-37 6q-40 0 -70 -30l-44 100q23 29 51 44t66 15q24 0 40 -5.5t30.5 -12
t29.5 -12t36 -5.5q22 0 42.5 9t30.5 20z" />
    <glyph glyph-name="Odieresis" unicode="&#xd6;" 
d="M373 -18q-78 0 -144 23t-113.5 69t-74 115.5t-26.5 163.5q0 81 25.5 148t72 115.5t111 75t142.5 26.5q92 0 159.5 -26.5t112 -75t66 -117.5t21.5 -153q0 -85 -23 -152.5t-68 -114.5t-110.5 -72t-150.5 -25zM373 139q24 0 42.5 15t32 42t20.5 65t7 85q0 46 -6.5 85.5
t-20 69t-34.5 46.5t-50 17q-23 0 -41.5 -15.5t-32 -43.5t-21 -67t-7.5 -85q0 -49 8.5 -88.5t23 -67.5t35 -43t44.5 -15zM398 845q0 17 7 35t20.5 33t34 24.5t46.5 9.5t46.5 -9.5t34.5 -24.5t21.5 -33t7.5 -35q0 -42 -28 -71.5t-82 -29.5q-24 0 -43.5 9t-34 23.5t-22.5 32.5
t-8 36zM123 845q0 17 7 35t20.5 33t34 24.5t46.5 9.5t46.5 -9.5t34.5 -24.5t21.5 -33t7.5 -35q0 -42 -28 -71.5t-82 -29.5q-24 0 -43.5 9t-34 23.5t-22.5 32.5t-8 36z" />
    <glyph glyph-name="multiply" unicode="&#xd7;" horiz-adv-x="722" 
d="M354 227l-169 -169l-115 116l168 168l-164 165l111 111l165 -164l165 165l116 -115l-166 -166l165 -164l-112 -112z" />
    <glyph glyph-name="Oslash" unicode="&#xd8;" 
d="M109 80q-45 47 -69.5 114.5t-24.5 158.5q0 81 25.5 148t72 115.5t111 75t142.5 26.5q48 0 89.5 -8t76.5 -22l8 11h146l-54 -77q48 -49 70.5 -119t22.5 -157q0 -85 -23 -152.5t-68 -114.5t-110.5 -72t-150.5 -25q-91 0 -165 31l-9 -13h-146zM262 353q0 -14 0.5 -26
t1.5 -24l162 233q-25 28 -62 28q-23 0 -41.5 -15.5t-32 -43.5t-21 -67t-7.5 -85zM373 139q24 0 42.5 15t32 42t20.5 65t7 85q0 12 -0.5 24t-1.5 23l-158 -227q24 -27 58 -27z" />
    <glyph glyph-name="Ugrave" unicode="&#xd9;" horiz-adv-x="737" 
d="M15 699h318v-129h-54v-216q0 -60 6.5 -98t19.5 -59.5t31.5 -29.5t42.5 -8q23 0 41.5 6.5t32 27t20.5 59t7 103.5v212h-54v132h296v-129h-54v-243q0 -178 -73 -261t-214 -83q-152 5 -231 86.5t-79 252.5v247h-56v130zM364 900l78 -142h-125l-151 142h198z" />
    <glyph glyph-name="Uacute" unicode="&#xda;" horiz-adv-x="737" 
d="M15 699h318v-129h-54v-216q0 -60 6.5 -98t19.5 -59.5t31.5 -29.5t42.5 -8q23 0 41.5 6.5t32 27t20.5 59t7 103.5v212h-54v132h296v-129h-54v-243q0 -178 -73 -261t-214 -83q-152 5 -231 86.5t-79 252.5v247h-56v130zM590 900l-151 -142h-125l78 142h198z" />
    <glyph glyph-name="Ucircumflex" unicode="&#xdb;" horiz-adv-x="737" 
d="M15 699h318v-129h-54v-216q0 -60 6.5 -98t19.5 -59.5t31.5 -29.5t42.5 -8q23 0 41.5 6.5t32 27t20.5 59t7 103.5v212h-54v132h296v-129h-54v-243q0 -178 -73 -261t-214 -83q-152 5 -231 86.5t-79 252.5v247h-56v130zM513 745l-139 70l-135 -70l-50 93l191 119l189 -119z
" />
    <glyph glyph-name="Udieresis" unicode="&#xdc;" horiz-adv-x="737" 
d="M15 699h318v-129h-54v-216q0 -60 6.5 -98t19.5 -59.5t31.5 -29.5t42.5 -8q23 0 41.5 6.5t32 27t20.5 59t7 103.5v212h-54v132h296v-129h-54v-243q0 -178 -73 -261t-214 -83q-152 5 -231 86.5t-79 252.5v247h-56v130zM404 845q0 17 7 35t20.5 33t34 24.5t46.5 9.5
t46.5 -9.5t34.5 -24.5t21.5 -33t7.5 -35q0 -42 -28 -71.5t-82 -29.5q-24 0 -43.5 9t-34 23.5t-22.5 32.5t-8 36zM129 845q0 17 7 35t20.5 33t34 24.5t46.5 9.5t46.5 -9.5t34.5 -24.5t21.5 -33t7.5 -35q0 -42 -28 -71.5t-82 -29.5q-24 0 -43.5 9t-34 23.5t-22.5 32.5t-8 36z
" />
    <glyph glyph-name="Yacute" unicode="&#xdd;" horiz-adv-x="669" 
d="M373 384q1 7 5.5 18t10 23t11.5 24t10 21l55 101h-55v128h269v-128h-54l-185 -325v-116h56v-130h-320v130h57v118l-194 323h-49v128h342v-128h-52l58 -106q2 -7 6.5 -18t9.5 -23t9 -23t6 -17h4zM578 900l-151 -142h-125l78 142h198z" />
    <glyph glyph-name="Thorn" unicode="&#xde;" horiz-adv-x="640" 
d="M18 699h332v-132h-62v-35h61q87 0 141 -13.5t84 -38.5t40.5 -59.5t10.5 -77.5q0 -50 -21 -83.5t-57 -54.5t-83.5 -30t-101.5 -9h-74v-33h62v-133h-332v133h63v434h-63v132zM288 402v-128h43q22 0 40 2t31 9t20 19t7 32q0 22 -6.5 35t-18.5 20t-29 9t-39 2h-48z" />
    <glyph glyph-name="germandbls" unicode="&#xdf;" horiz-adv-x="665" 
d="M350 132q21 0 39.5 10t32 25.5t21.5 35t8 38.5q0 20 -7.5 39.5t-20.5 34.5t-30 24.5t-36 9.5l-2 119q36 0 60.5 17.5t24.5 51.5q0 26 -9 45t-24.5 31.5t-35.5 18.5t-41 6q-8 0 -19.5 -3t-22 -10t-17.5 -17t-7 -23v-454h45v-131h-283v131h40v239h-41v130h41v85
q0 21 16 52.5t48 60.5t81.5 49.5t117.5 20.5q59 0 109.5 -12.5t88 -38.5t59 -66t21.5 -95q0 -26 -8 -46t-19.5 -35.5t-24 -27t-22.5 -18.5q12 -9 29.5 -27t34 -43.5t28.5 -56.5t12 -65q0 -56 -26 -102t-67.5 -79t-92.5 -51t-102 -18z" />
    <glyph glyph-name="agrave" unicode="&#xe0;" horiz-adv-x="600" 
d="M36 458q15 9 38 21t51.5 23.5t61 19t67.5 7.5q45 0 93 -9.5t87.5 -33t65 -63.5t25.5 -100v-195h60v-128h-214l-24 45q-14 -19 -31.5 -31.5t-36 -19.5t-36.5 -10t-31 -3q-36 0 -71 10t-63 30t-45.5 51.5t-17.5 75.5q0 42 16.5 76t45 58t66.5 37t80 13q22 0 39.5 -4.5
t30 -10.5t20 -12t9.5 -8v35q0 34 -27 45t-68 11q-45 0 -82.5 -15t-66.5 -31zM258 111q23 0 40 11t24 22v38q-1 2 -4.5 6.5t-10.5 9.5t-17.5 9t-26.5 4q-30 0 -44 -15t-14 -38q0 -21 15 -34t38 -13zM227 701l78 -142h-125l-151 142h198z" />
    <glyph glyph-name="aacute" unicode="&#xe1;" horiz-adv-x="600" 
d="M36 458q15 9 38 21t51.5 23.5t61 19t67.5 7.5q45 0 93 -9.5t87.5 -33t65 -63.5t25.5 -100v-195h60v-128h-214l-24 45q-14 -19 -31.5 -31.5t-36 -19.5t-36.5 -10t-31 -3q-36 0 -71 10t-63 30t-45.5 51.5t-17.5 75.5q0 42 16.5 76t45 58t66.5 37t80 13q22 0 39.5 -4.5
t30 -10.5t20 -12t9.5 -8v35q0 34 -27 45t-68 11q-45 0 -82.5 -15t-66.5 -31zM258 111q23 0 40 11t24 22v38q-1 2 -4.5 6.5t-10.5 9.5t-17.5 9t-26.5 4q-30 0 -44 -15t-14 -38q0 -21 15 -34t38 -13zM483 701l-151 -142h-125l78 142h198z" />
    <glyph glyph-name="acircumflex" unicode="&#xe2;" horiz-adv-x="600" 
d="M36 458q15 9 38 21t51.5 23.5t61 19t67.5 7.5q45 0 93 -9.5t87.5 -33t65 -63.5t25.5 -100v-195h60v-128h-214l-24 45q-14 -19 -31.5 -31.5t-36 -19.5t-36.5 -10t-31 -3q-36 0 -71 10t-63 30t-45.5 51.5t-17.5 75.5q0 42 16.5 76t45 58t66.5 37t80 13q22 0 39.5 -4.5
t30 -10.5t20 -12t9.5 -8v35q0 34 -27 45t-68 11q-45 0 -82.5 -15t-66.5 -31zM258 111q23 0 40 11t24 22v38q-1 2 -4.5 6.5t-10.5 9.5t-17.5 9t-26.5 4q-30 0 -44 -15t-14 -38q0 -21 15 -34t38 -13zM417 546l-139 70l-135 -70l-50 93l191 119l189 -119z" />
    <glyph glyph-name="atilde" unicode="&#xe3;" horiz-adv-x="600" 
d="M36 458q15 9 38 21t51.5 23.5t61 19t67.5 7.5q45 0 93 -9.5t87.5 -33t65 -63.5t25.5 -100v-195h60v-128h-214l-24 45q-14 -19 -31.5 -31.5t-36 -19.5t-36.5 -10t-31 -3q-36 0 -71 10t-63 30t-45.5 51.5t-17.5 75.5q0 42 16.5 76t45 58t66.5 37t80 13q22 0 39.5 -4.5
t30 -10.5t20 -12t9.5 -8v35q0 34 -27 45t-68 11q-45 0 -82.5 -15t-66.5 -31zM258 111q23 0 40 11t24 22v38q-1 2 -4.5 6.5t-10.5 9.5t-17.5 9t-26.5 4q-30 0 -44 -15t-14 -38q0 -21 15 -34t38 -13zM474 604q-22 -27 -51 -41t-72 -14q-23 0 -38.5 6t-29.5 12.5t-29 12.5
t-37 6q-40 0 -70 -30l-44 100q23 29 51 44t66 15q24 0 40 -5.5t30.5 -12t29.5 -12t36 -5.5q22 0 42.5 9t30.5 20z" />
    <glyph glyph-name="adieresis" unicode="&#xe4;" horiz-adv-x="600" 
d="M36 458q15 9 38 21t51.5 23.5t61 19t67.5 7.5q45 0 93 -9.5t87.5 -33t65 -63.5t25.5 -100v-195h60v-128h-214l-24 45q-14 -19 -31.5 -31.5t-36 -19.5t-36.5 -10t-31 -3q-36 0 -71 10t-63 30t-45.5 51.5t-17.5 75.5q0 42 16.5 76t45 58t66.5 37t80 13q22 0 39.5 -4.5
t30 -10.5t20 -12t9.5 -8v35q0 34 -27 45t-68 11q-45 0 -82.5 -15t-66.5 -31zM258 111q23 0 40 11t24 22v38q-1 2 -4.5 6.5t-10.5 9.5t-17.5 9t-26.5 4q-30 0 -44 -15t-14 -38q0 -21 15 -34t38 -13zM328 646q0 17 7 35t20.5 33t34 24.5t46.5 9.5t46.5 -9.5t34.5 -24.5
t21.5 -33t7.5 -35q0 -42 -28 -71.5t-82 -29.5q-24 0 -43.5 9t-34 23.5t-22.5 32.5t-8 36zM53 646q0 17 7 35t20.5 33t34 24.5t46.5 9.5t46.5 -9.5t34.5 -24.5t21.5 -33t7.5 -35q0 -42 -28 -71.5t-82 -29.5q-24 0 -43.5 9t-34 23.5t-22.5 32.5t-8 36z" />
    <glyph glyph-name="aring" unicode="&#xe5;" horiz-adv-x="600" 
d="M319 649q0 18 -12 30t-27 12q-20 0 -32 -12t-12 -30t12 -30t29 -12q19 0 30.5 12t11.5 30zM394 649q0 -22 -9.5 -41t-25.5 -33.5t-37 -23t-43 -8.5q-25 0 -46.5 8.5t-37.5 23t-25 33.5t-9 41t9.5 41t26 33.5t37.5 23t45 8.5t44.5 -8.5t36.5 -23t25 -33.5t9 -41zM36 458
q15 9 38 21t51.5 23.5t61 19t67.5 7.5q45 0 93 -9.5t87.5 -33t65 -63.5t25.5 -100v-195h60v-128h-214l-24 45q-14 -19 -31.5 -31.5t-36 -19.5t-36.5 -10t-31 -3q-36 0 -71 10t-63 30t-45.5 51.5t-17.5 75.5q0 42 16.5 76t45 58t66.5 37t80 13q22 0 39.5 -4.5t30 -10.5
t20 -12t9.5 -8v35q0 34 -27 45t-68 11q-45 0 -82.5 -15t-66.5 -31zM258 111q23 0 40 11t24 22v38q-1 2 -4.5 6.5t-10.5 9.5t-17.5 9t-26.5 4q-30 0 -44 -15t-14 -38q0 -21 15 -34t38 -13z" />
    <glyph glyph-name="ae" unicode="&#xe6;" horiz-adv-x="905" 
d="M856 69q-56 -48 -118 -67.5t-140 -19.5q-56 0 -111 21.5t-94 68.5q-14 -19 -34.5 -35.5t-44 -29t-50 -19.5t-52.5 -7q-36 0 -71 10t-63 30t-45.5 51.5t-17.5 75.5q0 42 16.5 76t45 58t66.5 37t80 13q22 0 39.5 -4.5t30 -10.5t20 -12t9.5 -8v35q0 34 -27 45t-68 11
q-45 0 -82.5 -15t-66.5 -31l-42 116q15 9 38 21t51.5 23.5t61 19t67.5 7.5q51 0 103.5 -12t94.5 -42q32 19 70 29t81 10q62 0 109.5 -18t79.5 -50t48 -75.5t16 -94.5q0 -20 -3 -39.5t-9 -36.5h-315q2 -10 6.5 -24t15.5 -27t30 -22t51 -9q13 0 28.5 1t33.5 6t38 14.5t40 26.5
zM609 379q-23 0 -37.5 -9t-23 -21.5t-12 -26.5t-4.5 -23h151q0 14 -3 28.5t-10.5 26t-22 18.5t-38.5 7zM258 111q23 0 40 11t24 22v38q-1 2 -4.5 6.5t-10.5 9.5t-17.5 9t-26.5 4q-30 0 -44 -15t-14 -38q0 -21 15 -34t38 -13z" />
    <glyph glyph-name="ccedilla" unicode="&#xe7;" horiz-adv-x="531" 
d="M370 -116q0 -18 -6.5 -36.5t-20.5 -33t-37 -23.5t-57 -9q-23 0 -47.5 6t-40.5 14l32 62q24 -11 48 -11q33 0 33 24t-33 24q-9 0 -16 -0.5t-12 -1.5l-10 17l23 74q-47 6 -88 26t-71.5 53t-48 79t-17.5 105q0 66 20.5 114.5t54.5 80t78.5 46.5t92.5 15q25 0 45.5 -6t36 -15
t26.5 -19t17 -17l17 48h118v-226h-147q-1 18 -4.5 36.5t-10.5 34t-19 25t-29 9.5q-22 0 -38.5 -11t-27.5 -29t-16.5 -41t-5.5 -47q0 -51 28 -84.5t78 -33.5q38 0 66 15.5t52 41.5l88 -102q-32 -35 -87.5 -64.5t-126.5 -35.5l-14 -31q36 -3 56.5 -23.5t20.5 -49.5z" />
    <glyph glyph-name="egrave" unicode="&#xe8;" horiz-adv-x="542" 
d="M527 69q-56 -48 -118 -67.5t-140 -19.5q-47 0 -94 15.5t-84.5 48t-61.5 84t-24 123.5q0 61 21 109.5t57 82.5t85 51.5t106 17.5q62 0 109.5 -18t79.5 -50t48 -75.5t16 -94.5q0 -20 -3 -39.5t-9 -36.5h-315q2 -10 6.5 -24t15.5 -27t30 -22t51 -9q13 0 28.5 1t33.5 6
t38 14.5t40 26.5zM280 379q-23 0 -37.5 -9t-23 -21.5t-12 -26.5t-4.5 -23h151q0 14 -3 28.5t-10.5 26t-22 18.5t-38.5 7zM270 701l78 -142h-125l-151 142h198z" />
    <glyph glyph-name="eacute" unicode="&#xe9;" horiz-adv-x="542" 
d="M527 69q-56 -48 -118 -67.5t-140 -19.5q-47 0 -94 15.5t-84.5 48t-61.5 84t-24 123.5q0 61 21 109.5t57 82.5t85 51.5t106 17.5q62 0 109.5 -18t79.5 -50t48 -75.5t16 -94.5q0 -20 -3 -39.5t-9 -36.5h-315q2 -10 6.5 -24t15.5 -27t30 -22t51 -9q13 0 28.5 1t33.5 6
t38 14.5t40 26.5zM280 379q-23 0 -37.5 -9t-23 -21.5t-12 -26.5t-4.5 -23h151q0 14 -3 28.5t-10.5 26t-22 18.5t-38.5 7zM454 701l-151 -142h-125l78 142h198z" />
    <glyph glyph-name="ecircumflex" unicode="&#xea;" horiz-adv-x="542" 
d="M527 69q-56 -48 -118 -67.5t-140 -19.5q-47 0 -94 15.5t-84.5 48t-61.5 84t-24 123.5q0 61 21 109.5t57 82.5t85 51.5t106 17.5q62 0 109.5 -18t79.5 -50t48 -75.5t16 -94.5q0 -20 -3 -39.5t-9 -36.5h-315q2 -10 6.5 -24t15.5 -27t30 -22t51 -9q13 0 28.5 1t33.5 6
t38 14.5t40 26.5zM280 379q-23 0 -37.5 -9t-23 -21.5t-12 -26.5t-4.5 -23h151q0 14 -3 28.5t-10.5 26t-22 18.5t-38.5 7zM416 542l-139 70l-135 -70l-50 93l191 119l189 -119z" />
    <glyph glyph-name="edieresis" unicode="&#xeb;" horiz-adv-x="542" 
d="M527 69q-56 -48 -118 -67.5t-140 -19.5q-47 0 -94 15.5t-84.5 48t-61.5 84t-24 123.5q0 61 21 109.5t57 82.5t85 51.5t106 17.5q62 0 109.5 -18t79.5 -50t48 -75.5t16 -94.5q0 -20 -3 -39.5t-9 -36.5h-315q2 -10 6.5 -24t15.5 -27t30 -22t51 -9q13 0 28.5 1t33.5 6
t38 14.5t40 26.5zM280 379q-23 0 -37.5 -9t-23 -21.5t-12 -26.5t-4.5 -23h151q0 14 -3 28.5t-10.5 26t-22 18.5t-38.5 7zM300 646q0 17 7 35t20.5 33t34 24.5t46.5 9.5t46.5 -9.5t34.5 -24.5t21.5 -33t7.5 -35q0 -42 -28 -71.5t-82 -29.5q-24 0 -43.5 9t-34 23.5t-22.5 32.5
t-8 36zM25 646q0 17 7 35t20.5 33t34 24.5t46.5 9.5t46.5 -9.5t34.5 -24.5t21.5 -33t7.5 -35q0 -42 -28 -71.5t-82 -29.5q-24 0 -43.5 9t-34 23.5t-22.5 32.5t-8 36z" />
    <glyph glyph-name="igrave" unicode="&#xec;" horiz-adv-x="330" 
d="M305 0h-280v131h42v239h-42v130h232v-369h48v-131zM225 701l80 -142h-127l-151 142h198z" />
    <glyph glyph-name="iacute" unicode="&#xed;" horiz-adv-x="330" 
d="M305 0h-280v131h42v239h-42v130h232v-369h48v-131zM303 701l-151 -142h-125l78 142h198z" />
    <glyph glyph-name="icircumflex" unicode="&#xee;" horiz-adv-x="330" 
d="M305 0h-280v131h42v239h-42v130h232v-369h48v-131zM273 546l-139 70l-135 -70l-50 93l191 119l189 -119z" />
    <glyph glyph-name="idieresis" unicode="&#xef;" horiz-adv-x="330" 
d="M305 0h-280v131h42v239h-42v130h232v-369h48v-131zM194 646q0 17 7 35t20.5 33t34 24.5t46.5 9.5t46.5 -9.5t34.5 -24.5t21.5 -33t7.5 -35q0 -42 -28 -71.5t-82 -29.5q-24 0 -43.5 9t-34 23.5t-22.5 32.5t-8 36zM-81 646q0 17 7 35t20.5 33t34 24.5t46.5 9.5t46.5 -9.5
t34.5 -24.5t21.5 -33t7.5 -35q0 -42 -28 -71.5t-82 -29.5q-24 0 -43.5 9t-34 23.5t-22.5 32.5t-8 36z" />
    <glyph glyph-name="eth" unicode="&#xf0;" horiz-adv-x="571" 
d="M286 701l50 -66h150v-85h-84l92 -120q32 -37 50.5 -80t18.5 -106q0 -62 -21.5 -109.5t-58.5 -80.5t-86.5 -50t-106.5 -17q-54 0 -104.5 16.5t-89.5 49.5t-62 83t-23 116q0 62 23.5 110.5t61.5 81.5t87.5 50.5t100.5 17.5l-40 38h-169v85h81l-68 66h198zM290 115
q16 0 28.5 10t21.5 28t13.5 42.5t4.5 52.5t-5 52.5t-14 42.5t-22.5 28.5t-31.5 10.5q-15 0 -27.5 -10t-21.5 -28t-14.5 -42t-5.5 -51q0 -62 21 -99t53 -37z" />
    <glyph glyph-name="ntilde" unicode="&#xf1;" horiz-adv-x="647" 
d="M333 0h-308v131h42v239h-42v130h213l23 -62q26 35 60.5 57.5t82.5 22.5q58 0 93.5 -19.5t55 -51t26 -71t6.5 -78.5v-167h47v-131h-252v273q0 13 -0.5 29t-5.5 30t-16.5 24t-33.5 10q-19 0 -31.5 -8.5t-19.5 -22t-9.5 -30t-2.5 -32.5v-142h72v-131zM490 606
q-22 -27 -51 -41t-72 -14q-23 0 -38.5 6t-29.5 12.5t-29 12.5t-37 6q-40 0 -70 -30l-44 100q23 29 51 44t66 15q24 0 40 -5.5t30.5 -12t29.5 -12t36 -5.5q22 0 42.5 9t30.5 20z" />
    <glyph glyph-name="ograve" unicode="&#xf2;" horiz-adv-x="574" 
d="M290 -13q-54 0 -104.5 16.5t-89.5 49.5t-62 83t-23 116q0 63 23.5 111.5t62 81.5t88 50t100.5 17q59 0 110 -18.5t88.5 -53t58.5 -84t21 -112.5q0 -62 -21.5 -109.5t-58.5 -80.5t-86.5 -50t-106.5 -17zM290 115q16 0 28.5 10t21.5 28t13.5 42.5t4.5 52.5t-5 52.5
t-14 42.5t-22.5 28.5t-31.5 10.5q-15 0 -27.5 -10t-21.5 -28t-14.5 -42t-5.5 -51q0 -62 21 -99t53 -37zM286 701l78 -142h-125l-151 142h198z" />
    <glyph glyph-name="oacute" unicode="&#xf3;" horiz-adv-x="574" 
d="M290 -13q-54 0 -104.5 16.5t-89.5 49.5t-62 83t-23 116q0 63 23.5 111.5t62 81.5t88 50t100.5 17q59 0 110 -18.5t88.5 -53t58.5 -84t21 -112.5q0 -62 -21.5 -109.5t-58.5 -80.5t-86.5 -50t-106.5 -17zM290 115q16 0 28.5 10t21.5 28t13.5 42.5t4.5 52.5t-5 52.5
t-14 42.5t-22.5 28.5t-31.5 10.5q-15 0 -27.5 -10t-21.5 -28t-14.5 -42t-5.5 -51q0 -62 21 -99t53 -37zM470 701l-151 -142h-125l78 142h198z" />
    <glyph glyph-name="ocircumflex" unicode="&#xf4;" horiz-adv-x="574" 
d="M290 -13q-54 0 -104.5 16.5t-89.5 49.5t-62 83t-23 116q0 63 23.5 111.5t62 81.5t88 50t100.5 17q59 0 110 -18.5t88.5 -53t58.5 -84t21 -112.5q0 -62 -21.5 -109.5t-58.5 -80.5t-86.5 -50t-106.5 -17zM290 115q16 0 28.5 10t21.5 28t13.5 42.5t4.5 52.5t-5 52.5
t-14 42.5t-22.5 28.5t-31.5 10.5q-15 0 -27.5 -10t-21.5 -28t-14.5 -42t-5.5 -51q0 -62 21 -99t53 -37zM404 546l-139 70l-135 -70l-50 93l191 119l189 -119z" />
    <glyph glyph-name="otilde" unicode="&#xf5;" horiz-adv-x="574" 
d="M290 -13q-54 0 -104.5 16.5t-89.5 49.5t-62 83t-23 116q0 63 23.5 111.5t62 81.5t88 50t100.5 17q59 0 110 -18.5t88.5 -53t58.5 -84t21 -112.5q0 -62 -21.5 -109.5t-58.5 -80.5t-86.5 -50t-106.5 -17zM290 115q16 0 28.5 10t21.5 28t13.5 42.5t4.5 52.5t-5 52.5
t-14 42.5t-22.5 28.5t-31.5 10.5q-15 0 -27.5 -10t-21.5 -28t-14.5 -42t-5.5 -51q0 -62 21 -99t53 -37zM472 606q-22 -27 -51 -41t-72 -14q-23 0 -38.5 6t-29.5 12.5t-29 12.5t-37 6q-40 0 -70 -30l-44 100q23 29 51 44t66 15q24 0 40 -5.5t30.5 -12t29.5 -12t36 -5.5
q22 0 42.5 9t30.5 20z" />
    <glyph glyph-name="odieresis" unicode="&#xf6;" horiz-adv-x="574" 
d="M290 -13q-54 0 -104.5 16.5t-89.5 49.5t-62 83t-23 116q0 63 23.5 111.5t62 81.5t88 50t100.5 17q59 0 110 -18.5t88.5 -53t58.5 -84t21 -112.5q0 -62 -21.5 -109.5t-58.5 -80.5t-86.5 -50t-106.5 -17zM290 115q16 0 28.5 10t21.5 28t13.5 42.5t4.5 52.5t-5 52.5
t-14 42.5t-22.5 28.5t-31.5 10.5q-15 0 -27.5 -10t-21.5 -28t-14.5 -42t-5.5 -51q0 -62 21 -99t53 -37zM316 646q0 17 7 35t20.5 33t34 24.5t46.5 9.5t46.5 -9.5t34.5 -24.5t21.5 -33t7.5 -35q0 -42 -28 -71.5t-82 -29.5q-24 0 -43.5 9t-34 23.5t-22.5 32.5t-8 36zM41 646
q0 17 7 35t20.5 33t34 24.5t46.5 9.5t46.5 -9.5t34.5 -24.5t21.5 -33t7.5 -35q0 -42 -28 -71.5t-82 -29.5q-24 0 -43.5 9t-34 23.5t-22.5 32.5t-8 36z" />
    <glyph glyph-name="divide" unicode="&#xf7;" horiz-adv-x="524" 
d="M155 98q0 19 7 38.5t21.5 36t35 27t47.5 10.5t48 -10.5t35.5 -27t22 -36t7.5 -38.5q0 -22 -8 -41.5t-23 -33.5t-36 -22.5t-46 -8.5q-24 0 -44.5 9t-35.5 24t-23 34t-8 39zM155 519q0 19 7 38.5t21.5 36t35 27t47.5 10.5t48 -10.5t35.5 -27t22 -36t7.5 -38.5
q0 -45 -29.5 -75.5t-83.5 -30.5q-23 0 -43.5 9t-35.5 24t-23.5 34t-8.5 39zM58 377h412v-133h-412v133z" />
    <glyph glyph-name="oslash" unicode="&#xf8;" horiz-adv-x="574" 
d="M83 64q-35 33 -53.5 79.5t-18.5 108.5q0 63 23.5 111.5t62 81.5t88 50t100.5 17q35 0 67 -7.5t61 -18.5l12 15h118l-53 -67q34 -34 53.5 -82t19.5 -108q0 -62 -21.5 -109.5t-58.5 -80.5t-86.5 -50t-106.5 -17q-68 0 -129 26l-10 -13h-118zM290 115q16 0 28.5 10t21.5 28
t13.5 42.5t4.5 52.5v7.5t-1 8.5l-104 -134q16 -15 37 -15zM216 234l104 133q-8 6 -17 10.5t-18 4.5q-15 0 -27.5 -10t-21.5 -28t-14.5 -42t-5.5 -51v-17z" />
    <glyph glyph-name="ugrave" unicode="&#xf9;" horiz-adv-x="631" 
d="M15 500h242v-241q0 -65 11.5 -95.5t42.5 -30.5q26 0 44.5 21t18.5 55v159h-66v132h259v-367h49v-133h-189l-27 63q-8 -9 -19.5 -22.5t-28 -25.5t-39.5 -20.5t-55 -8.5q-57 0 -95.5 15t-62 45t-33.5 76t-10 108v138h-42v132zM314 701l78 -142h-125l-151 142h198z" />
    <glyph glyph-name="uacute" unicode="&#xfa;" horiz-adv-x="631" 
d="M15 500h242v-241q0 -65 11.5 -95.5t42.5 -30.5q26 0 44.5 21t18.5 55v159h-66v132h259v-367h49v-133h-189l-27 63q-8 -9 -19.5 -22.5t-28 -25.5t-39.5 -20.5t-55 -8.5q-57 0 -95.5 15t-62 45t-33.5 76t-10 108v138h-42v132zM498 701l-151 -142h-125l78 142h198z" />
    <glyph glyph-name="ucircumflex" unicode="&#xfb;" horiz-adv-x="631" 
d="M15 500h242v-241q0 -65 11.5 -95.5t42.5 -30.5q26 0 44.5 21t18.5 55v159h-66v132h259v-367h49v-133h-189l-27 63q-8 -9 -19.5 -22.5t-28 -25.5t-39.5 -20.5t-55 -8.5q-57 0 -95.5 15t-62 45t-33.5 76t-10 108v138h-42v132zM433 546l-139 70l-135 -70l-50 93l191 119
l189 -119z" />
    <glyph glyph-name="udieresis" unicode="&#xfc;" horiz-adv-x="631" 
d="M15 500h242v-241q0 -65 11.5 -95.5t42.5 -30.5q26 0 44.5 21t18.5 55v159h-66v132h259v-367h49v-133h-189l-27 63q-8 -9 -19.5 -22.5t-28 -25.5t-39.5 -20.5t-55 -8.5q-57 0 -95.5 15t-62 45t-33.5 76t-10 108v138h-42v132zM344 646q0 17 7 35t20.5 33t34 24.5t46.5 9.5
t46.5 -9.5t34.5 -24.5t21.5 -33t7.5 -35q0 -42 -28 -71.5t-82 -29.5q-24 0 -43.5 9t-34 23.5t-22.5 32.5t-8 36zM69 646q0 17 7 35t20.5 33t34 24.5t46.5 9.5t46.5 -9.5t34.5 -24.5t21.5 -33t7.5 -35q0 -42 -28 -71.5t-82 -29.5q-24 0 -43.5 9t-34 23.5t-22.5 32.5t-8 36z
" />
    <glyph glyph-name="yacute" unicode="&#xfd;" horiz-adv-x="580" 
d="M382 373h-46v127h254v-124h-48l-190 -462q-11 -24 -25.5 -49t-38.5 -45.5t-60.5 -33.5t-90.5 -13q-39 2 -68.5 16t-52.5 34l75 118q14 -13 31.5 -24t34.5 -11q20 0 34.5 17t21.5 37l14 42l-195 370h-41v128h308v-127h-47l65 -156zM473 701l-156 -142h-120l78 142h198z
" />
    <glyph glyph-name="thorn" unicode="&#xfe;" horiz-adv-x="638" 
d="M25 -73h42v694h-41v129h232v-295l13 10q7 5 18 12.5t26.5 14t34.5 11.5t42 5q58 0 102.5 -21t74 -57t44.5 -83.5t15 -100.5q0 -60 -17.5 -107.5t-48 -80.5t-72.5 -51t-90 -18q-31 0 -54.5 5t-39 12t-24.5 13.5t-12 8.5v-101h54v-131h-299v131zM413 244q0 22 -5 44.5
t-14.5 39.5t-23 28t-29.5 11q-28 0 -49.5 -31t-21.5 -85q0 -28 5 -52t14.5 -42t23 -28t29.5 -10q32 0 51.5 34t19.5 91z" />
    <glyph glyph-name="ydieresis" unicode="&#xff;" horiz-adv-x="580" 
d="M382 373h-46v127h254v-124h-48l-190 -462q-11 -24 -25.5 -49t-38.5 -45.5t-60.5 -33.5t-90.5 -13q-39 2 -68.5 16t-52.5 34l75 118q14 -13 31.5 -24t34.5 -11q20 0 34.5 17t21.5 37l14 42l-195 370h-41v128h308v-127h-47l65 -156zM319 646q0 17 7 35t20.5 33t34 24.5
t46.5 9.5t46.5 -9.5t34.5 -24.5t21.5 -33t7.5 -35q0 -42 -28 -71.5t-82 -29.5q-24 0 -43.5 9t-34 23.5t-22.5 32.5t-8 36zM44 646q0 17 7 35t20.5 33t34 24.5t46.5 9.5t46.5 -9.5t34.5 -24.5t21.5 -33t7.5 -35q0 -42 -28 -71.5t-82 -29.5q-24 0 -43.5 9t-34 23.5t-22.5 32.5
t-8 36z" />
    <glyph glyph-name="Amacron" unicode="&#x100;" horiz-adv-x="823" 
d="M808 0h-401v131h95l-21 68h-205l-21 -68h78v-131h-318v131h68l135 439h-41v129h384l177 -568h70v-131zM313 319h131l-66 216zM111 897h558v-133h-558v133z" />
    <glyph glyph-name="amacron" unicode="&#x101;" horiz-adv-x="600" 
d="M36 458q15 9 38 21t51.5 23.5t61 19t67.5 7.5q45 0 93 -9.5t87.5 -33t65 -63.5t25.5 -100v-195h60v-128h-214l-24 45q-14 -19 -31.5 -31.5t-36 -19.5t-36.5 -10t-31 -3q-36 0 -71 10t-63 30t-45.5 51.5t-17.5 75.5q0 42 16.5 76t45 58t66.5 37t80 13q22 0 39.5 -4.5
t30 -10.5t20 -12t9.5 -8v35q0 34 -27 45t-68 11q-45 0 -82.5 -15t-66.5 -31zM258 111q23 0 40 11t24 22v38q-1 2 -4.5 6.5t-10.5 9.5t-17.5 9t-26.5 4q-30 0 -44 -15t-14 -38q0 -21 15 -34t38 -13zM48 698h499v-133h-499v133z" />
    <glyph glyph-name="Abreve" unicode="&#x102;" horiz-adv-x="823" 
d="M808 0h-401v131h95l-21 68h-205l-21 -68h78v-131h-318v131h68l135 439h-41v129h384l177 -568h70v-131zM313 319h131l-66 216zM600 911q-5 -40 -22.5 -71t-44.5 -52t-62.5 -32t-74.5 -11q-36 0 -71 10t-63 30.5t-47.5 51.5t-25.5 72h155q5 -32 19 -50t33 -18q20 0 32 19.5
t17 49.5z" />
    <glyph glyph-name="abreve" unicode="&#x103;" horiz-adv-x="600" 
d="M36 458q15 9 38 21t51.5 23.5t61 19t67.5 7.5q45 0 93 -9.5t87.5 -33t65 -63.5t25.5 -100v-195h60v-128h-214l-24 45q-14 -19 -31.5 -31.5t-36 -19.5t-36.5 -10t-31 -3q-36 0 -71 10t-63 30t-45.5 51.5t-17.5 75.5q0 42 16.5 76t45 58t66.5 37t80 13q22 0 39.5 -4.5
t30 -10.5t20 -12t9.5 -8v35q0 34 -27 45t-68 11q-45 0 -82.5 -15t-66.5 -31zM258 111q23 0 40 11t24 22v38q-1 2 -4.5 6.5t-10.5 9.5t-17.5 9t-26.5 4q-30 0 -44 -15t-14 -38q0 -21 15 -34t38 -13zM481 743q-5 -40 -22.5 -71t-44.5 -52t-62.5 -32t-74.5 -11q-36 0 -71 10
t-63 30.5t-47.5 51.5t-25.5 72h155q5 -32 19 -50t33 -18q20 0 32 19.5t17 49.5z" />
    <glyph glyph-name="Aogonek" unicode="&#x104;" horiz-adv-x="823" 
d="M808 0h-114l-19 -11q-20 -11 -29.5 -30.5t-9.5 -37.5q0 -21 17 -35t35 -14q22 0 55.5 9.5t64.5 20.5v-143q-23 -10 -57 -17.5t-81 -7.5q-34 0 -65 6.5t-55 24.5t-38 49.5t-14 82.5q0 39 11 63t22 40h-124v131h95l-21 68h-205l-21 -68h78v-131h-318v131h68l135 439h-41
v129h384l177 -568h70v-131zM313 319h131l-66 216z" />
    <glyph glyph-name="aogonek" unicode="&#x105;" horiz-adv-x="600" 
d="M36 458q15 9 38 21t51.5 23.5t61 19t67.5 7.5q45 0 93 -9.5t87.5 -33t65 -63.5t25.5 -100v-195h60v-128h-29l-19 -11q-20 -11 -29.5 -30.5t-9.5 -37.5q0 -21 17 -35t35 -14q22 0 55.5 9.5t64.5 20.5v-143q-23 -10 -57 -17.5t-81 -7.5q-34 0 -65 6.5t-55 24.5t-38 49.5
t-14 82.5q0 39 11 63t22 40h-22l-24 45q-14 -19 -31.5 -31.5t-36 -19.5t-36.5 -10t-31 -3q-36 0 -71 10t-63 30t-45.5 51.5t-17.5 75.5q0 42 16.5 76t45 58t66.5 37t80 13q22 0 39.5 -4.5t30 -10.5t20 -12t9.5 -8v35q0 34 -27 45t-68 11q-45 0 -82.5 -15t-66.5 -31zM258 111
q23 0 40 11t24 22v38q-1 2 -4.5 6.5t-10.5 9.5t-17.5 9t-26.5 4q-30 0 -44 -15t-14 -38q0 -21 15 -34t38 -13z" />
    <glyph glyph-name="Cacute" unicode="&#x106;" horiz-adv-x="686" 
d="M671 125q-26 -28 -58 -53.5t-70 -45t-82 -31t-93 -11.5q-80 0 -145 24.5t-111 71t-71.5 113t-25.5 150.5q0 86 29 154.5t74 116t98.5 72.5t102.5 25q37 0 64.5 -9t46.5 -20.5t29.5 -23t13.5 -15.5l23 56h157v-284h-179q-1 24 -8 47t-19.5 40.5t-32 28t-46.5 10.5
t-49 -15.5t-37.5 -42.5t-24 -63t-8.5 -77q0 -37 9.5 -71t28 -60t45.5 -41.5t63 -15.5q31 0 59 14t49 31.5t34.5 33t16.5 19.5zM527 900l-151 -142h-125l78 142h198z" />
    <glyph glyph-name="cacute" unicode="&#x107;" horiz-adv-x="531" 
d="M360 274q-1 18 -4.5 36.5t-10.5 34t-19 25t-29 9.5q-22 0 -38.5 -11t-27.5 -29t-16.5 -41t-5.5 -47q0 -51 28 -84.5t78 -33.5q38 0 66 15.5t52 41.5l88 -102q-18 -19 -43 -37.5t-56.5 -32.5t-68.5 -23t-77 -9q-55 0 -105 16.5t-87.5 50t-60 83.5t-22.5 117
q0 66 20.5 114.5t54.5 80t78.5 46.5t92.5 15q25 0 45.5 -6t36 -15t26.5 -19t17 -17l17 48h118v-226h-147zM450 701l-151 -142h-125l78 142h198z" />
    <glyph glyph-name="Ccircumflex" unicode="&#x108;" horiz-adv-x="686" 
d="M671 125q-26 -28 -58 -53.5t-70 -45t-82 -31t-93 -11.5q-80 0 -145 24.5t-111 71t-71.5 113t-25.5 150.5q0 86 29 154.5t74 116t98.5 72.5t102.5 25q37 0 64.5 -9t46.5 -20.5t29.5 -23t13.5 -15.5l23 56h157v-284h-179q-1 24 -8 47t-19.5 40.5t-32 28t-46.5 10.5
t-49 -15.5t-37.5 -42.5t-24 -63t-8.5 -77q0 -37 9.5 -71t28 -60t45.5 -41.5t63 -15.5q31 0 59 14t49 31.5t34.5 33t16.5 19.5zM477 745l-139 70l-135 -70l-50 93l191 119l189 -119z" />
    <glyph glyph-name="ccircumflex" unicode="&#x109;" horiz-adv-x="531" 
d="M360 274q-1 18 -4.5 36.5t-10.5 34t-19 25t-29 9.5q-22 0 -38.5 -11t-27.5 -29t-16.5 -41t-5.5 -47q0 -51 28 -84.5t78 -33.5q38 0 66 15.5t52 41.5l88 -102q-18 -19 -43 -37.5t-56.5 -32.5t-68.5 -23t-77 -9q-55 0 -105 16.5t-87.5 50t-60 83.5t-22.5 117
q0 66 20.5 114.5t54.5 80t78.5 46.5t92.5 15q25 0 45.5 -6t36 -15t26.5 -19t17 -17l17 48h118v-226h-147zM399 546l-139 70l-135 -70l-50 93l191 119l189 -119z" />
    <glyph glyph-name="Cdotaccent" unicode="&#x10a;" horiz-adv-x="686" 
d="M671 125q-26 -28 -58 -53.5t-70 -45t-82 -31t-93 -11.5q-80 0 -145 24.5t-111 71t-71.5 113t-25.5 150.5q0 86 29 154.5t74 116t98.5 72.5t102.5 25q37 0 64.5 -9t46.5 -20.5t29.5 -23t13.5 -15.5l23 56h157v-284h-179q-1 24 -8 47t-19.5 40.5t-32 28t-46.5 10.5
t-49 -15.5t-37.5 -42.5t-24 -63t-8.5 -77q0 -37 9.5 -71t28 -60t45.5 -41.5t63 -15.5q31 0 59 14t49 31.5t34.5 33t16.5 19.5zM234 845q0 17 7 35t20.5 33t34 24.5t46.5 9.5t46.5 -9.5t34.5 -24.5t21.5 -33t7.5 -35q0 -42 -28 -71.5t-82 -29.5q-24 0 -43.5 9t-34 23.5
t-22.5 32.5t-8 36z" />
    <glyph glyph-name="cdotaccent" unicode="&#x10b;" horiz-adv-x="531" 
d="M360 274q-1 18 -4.5 36.5t-10.5 34t-19 25t-29 9.5q-22 0 -38.5 -11t-27.5 -29t-16.5 -41t-5.5 -47q0 -51 28 -84.5t78 -33.5q38 0 66 15.5t52 41.5l88 -102q-18 -19 -43 -37.5t-56.5 -32.5t-68.5 -23t-77 -9q-55 0 -105 16.5t-87.5 50t-60 83.5t-22.5 117
q0 66 20.5 114.5t54.5 80t78.5 46.5t92.5 15q25 0 45.5 -6t36 -15t26.5 -19t17 -17l17 48h118v-226h-147zM156 646q0 17 7 35t20.5 33t34 24.5t46.5 9.5t46.5 -9.5t34.5 -24.5t21.5 -33t7.5 -35q0 -42 -28 -71.5t-82 -29.5q-24 0 -43.5 9t-34 23.5t-22.5 32.5t-8 36z" />
    <glyph glyph-name="Ccaron" unicode="&#x10c;" horiz-adv-x="686" 
d="M671 125q-26 -28 -58 -53.5t-70 -45t-82 -31t-93 -11.5q-80 0 -145 24.5t-111 71t-71.5 113t-25.5 150.5q0 86 29 154.5t74 116t98.5 72.5t102.5 25q37 0 64.5 -9t46.5 -20.5t29.5 -23t13.5 -15.5l23 56h157v-284h-179q-1 24 -8 47t-19.5 40.5t-32 28t-46.5 10.5
t-49 -15.5t-37.5 -42.5t-24 -63t-8.5 -77q0 -37 9.5 -71t28 -60t45.5 -41.5t63 -15.5q31 0 59 14t49 31.5t34.5 33t16.5 19.5zM209 939l139 -70l135 70l50 -93l-191 -119l-189 119z" />
    <glyph glyph-name="ccaron" unicode="&#x10d;" horiz-adv-x="531" 
d="M360 274q-1 18 -4.5 36.5t-10.5 34t-19 25t-29 9.5q-22 0 -38.5 -11t-27.5 -29t-16.5 -41t-5.5 -47q0 -51 28 -84.5t78 -33.5q38 0 66 15.5t52 41.5l88 -102q-18 -19 -43 -37.5t-56.5 -32.5t-68.5 -23t-77 -9q-55 0 -105 16.5t-87.5 50t-60 83.5t-22.5 117
q0 66 20.5 114.5t54.5 80t78.5 46.5t92.5 15q25 0 45.5 -6t36 -15t26.5 -19t17 -17l17 48h118v-226h-147zM132 740l139 -70l135 70l50 -93l-191 -119l-189 119z" />
    <glyph glyph-name="Dcaron" unicode="&#x10e;" horiz-adv-x="720" 
d="M25 0v133h62v434h-62v132h305q91 0 161.5 -26.5t119 -72t74 -107.5t25.5 -134q0 -172 -99 -265.5t-285 -93.5h-301zM480 359q0 40 -8.5 77.5t-26.5 66.5t-46.5 46.5t-68.5 17.5h-38v-434h38q40 0 68.5 18t46.5 48.5t26.5 71.5t8.5 88zM226 939l139 -70l135 70l50 -93
l-191 -119l-189 119z" />
    <glyph glyph-name="dcaron" unicode="&#x10f;" horiz-adv-x="779" 
d="M368 620h-46v130h249v-620h48v-130h-234l-17 37q-5 -5 -15.5 -12.5t-26.5 -15t-37 -13t-47 -5.5q-53 0 -96 21.5t-73 58t-46.5 84.5t-16.5 100q0 58 19 105.5t51 80.5t74 51t88 18q53 0 82.5 -14.5t43.5 -23.5v148zM606 520q16 21 28.5 42.5t21 45t13 50.5t4.5 60v17.5
t-1 18.5l126 -34v-9q0 -68 -30 -129t-82 -109zM225 255q0 -23 5 -45t14.5 -39t22.5 -28t30 -11q28 0 49.5 31t21.5 85q0 28 -5 52t-14.5 42t-23 28t-29.5 10q-32 0 -51.5 -34t-19.5 -91z" />
    <glyph glyph-name="Dcroat" unicode="&#x110;" horiz-adv-x="720" 
d="M19 388h68v179h-62v132h305q91 0 161.5 -26.5t119 -72t74 -107.5t25.5 -134q0 -172 -99 -265.5t-285 -93.5h-301v133h62v167h-68v88zM480 359q0 40 -8.5 77.5t-26.5 66.5t-46.5 46.5t-68.5 17.5h-38v-179h62v-88h-62v-167h38q40 0 68.5 18t46.5 48.5t26.5 71.5t8.5 88z
" />
    <glyph glyph-name="dcroat" unicode="&#x111;" horiz-adv-x="634" 
d="M267 593h101v27h-46v130h249v-157h78v-65h-78v-398h48v-130h-234l-17 37q-5 -5 -15.5 -12.5t-26.5 -15t-37 -13t-47 -5.5q-53 0 -96 21.5t-73 58t-46.5 84.5t-16.5 100q0 58 19 105.5t51 80.5t74 51t88 18q53 0 82.5 -14.5t43.5 -23.5v56h-101v65zM225 255q0 -23 5 -45
t14.5 -39t22.5 -28t30 -11q28 0 49.5 31t21.5 85q0 28 -5 52t-14.5 42t-23 28t-29.5 10q-32 0 -51.5 -34t-19.5 -91z" />
    <glyph glyph-name="Emacron" unicode="&#x112;" horiz-adv-x="653" 
d="M25 699h603v-221h-173v89h-160v-138h190v-133h-190v-163h160v93h173v-226h-603v133h63v434h-63v132zM47 897h558v-133h-558v133z" />
    <glyph glyph-name="emacron" unicode="&#x113;" horiz-adv-x="542" 
d="M527 69q-56 -48 -118 -67.5t-140 -19.5q-47 0 -94 15.5t-84.5 48t-61.5 84t-24 123.5q0 61 21 109.5t57 82.5t85 51.5t106 17.5q62 0 109.5 -18t79.5 -50t48 -75.5t16 -94.5q0 -20 -3 -39.5t-9 -36.5h-315q2 -10 6.5 -24t15.5 -27t30 -22t51 -9q13 0 28.5 1t33.5 6
t38 14.5t40 26.5zM280 379q-23 0 -37.5 -9t-23 -21.5t-12 -26.5t-4.5 -23h151q0 14 -3 28.5t-10.5 26t-22 18.5t-38.5 7zM31 695h483v-130h-483v130z" />
    <glyph glyph-name="Ebreve" unicode="&#x114;" horiz-adv-x="653" 
d="M25 699h603v-221h-173v89h-160v-138h190v-133h-190v-163h160v93h173v-226h-603v133h63v434h-63v132zM533 919q-5 -40 -22.5 -71t-44.5 -52t-62.5 -32t-74.5 -11q-36 0 -71 10t-63 30.5t-47.5 51.5t-25.5 72h155q5 -32 19 -50t33 -18q20 0 32 19.5t17 49.5z" />
    <glyph glyph-name="ebreve" unicode="&#x115;" horiz-adv-x="542" 
d="M527 69q-56 -48 -118 -67.5t-140 -19.5q-47 0 -94 15.5t-84.5 48t-61.5 84t-24 123.5q0 61 21 109.5t57 82.5t85 51.5t106 17.5q62 0 109.5 -18t79.5 -50t48 -75.5t16 -94.5q0 -20 -3 -39.5t-9 -36.5h-315q2 -10 6.5 -24t15.5 -27t30 -22t51 -9q13 0 28.5 1t33.5 6
t38 14.5t40 26.5zM280 379q-23 0 -37.5 -9t-23 -21.5t-12 -26.5t-4.5 -23h151q0 14 -3 28.5t-10.5 26t-22 18.5t-38.5 7zM497 714q-5 -40 -22.5 -71t-44.5 -52t-62.5 -32t-74.5 -11q-36 0 -71 10t-63 30.5t-47.5 51.5t-25.5 72h155q5 -32 19 -50t33 -18q20 0 32 19.5
t17 49.5z" />
    <glyph glyph-name="Edotaccent" unicode="&#x116;" horiz-adv-x="653" 
d="M25 699h603v-221h-173v89h-160v-138h190v-133h-190v-163h160v93h173v-226h-603v133h63v434h-63v132zM217 845q0 17 7 35t20.5 33t34 24.5t46.5 9.5t46.5 -9.5t34.5 -24.5t21.5 -33t7.5 -35q0 -42 -28 -71.5t-82 -29.5q-24 0 -43.5 9t-34 23.5t-22.5 32.5t-8 36z" />
    <glyph glyph-name="edotaccent" unicode="&#x117;" horiz-adv-x="542" 
d="M527 69q-56 -48 -118 -67.5t-140 -19.5q-47 0 -94 15.5t-84.5 48t-61.5 84t-24 123.5q0 61 21 109.5t57 82.5t85 51.5t106 17.5q62 0 109.5 -18t79.5 -50t48 -75.5t16 -94.5q0 -20 -3 -39.5t-9 -36.5h-315q2 -10 6.5 -24t15.5 -27t30 -22t51 -9q13 0 28.5 1t33.5 6
t38 14.5t40 26.5zM280 379q-23 0 -37.5 -9t-23 -21.5t-12 -26.5t-4.5 -23h151q0 14 -3 28.5t-10.5 26t-22 18.5t-38.5 7zM162 646q0 17 7 35t20.5 33t34 24.5t46.5 9.5t46.5 -9.5t34.5 -24.5t21.5 -33t7.5 -35q0 -42 -28 -71.5t-82 -29.5q-24 0 -43.5 9t-34 23.5t-22.5 32.5
t-8 36z" />
    <glyph glyph-name="Eogonek" unicode="&#x118;" horiz-adv-x="653" 
d="M25 699h603v-221h-173v89h-160v-138h190v-133h-190v-163h160v93h173v-226h-114l-19 -11q-20 -11 -29.5 -30.5t-9.5 -37.5q0 -21 17 -35t35 -14q22 0 55.5 9.5t64.5 20.5v-143q-23 -10 -57 -17.5t-81 -7.5q-34 0 -65 6.5t-55 24.5t-38 49.5t-14 82.5q0 39 11 63t22 40
h-326v133h63v434h-63v132z" />
    <glyph glyph-name="eogonek" unicode="&#x119;" horiz-adv-x="542" 
d="M527 69q-42 -36 -86.5 -55.5t-96.5 -26.5q-18 -12 -26.5 -30.5t-8.5 -35.5q0 -21 17 -35t35 -14q22 0 55.5 9.5t64.5 20.5v-143q-23 -10 -57 -17.5t-81 -7.5q-34 0 -65 6.5t-55 24.5t-38 49.5t-14 82.5q0 32 8 55.5t19 37.5v1q-38 9 -73 29.5t-61.5 52.5t-42.5 76.5
t-16 103.5q0 61 21 109.5t57 82.5t85 51.5t106 17.5q62 0 109.5 -18t79.5 -50t48 -75.5t16 -94.5q0 -20 -3 -39.5t-9 -36.5h-315q2 -10 6.5 -24t15.5 -27t30 -22t51 -9q13 0 28.5 1t33.5 6t38 14.5t40 26.5zM280 379q-23 0 -37.5 -9t-23 -21.5t-12 -26.5t-4.5 -23h151
q0 14 -3 28.5t-10.5 26t-22 18.5t-38.5 7z" />
    <glyph glyph-name="Ecaron" unicode="&#x11a;" horiz-adv-x="653" 
d="M25 699h603v-221h-173v89h-160v-138h190v-133h-190v-163h160v93h173v-226h-603v133h63v434h-63v132zM192 939l139 -70l135 70l50 -93l-191 -119l-189 119z" />
    <glyph glyph-name="ecaron" unicode="&#x11b;" horiz-adv-x="542" 
d="M527 69q-56 -48 -118 -67.5t-140 -19.5q-47 0 -94 15.5t-84.5 48t-61.5 84t-24 123.5q0 61 21 109.5t57 82.5t85 51.5t106 17.5q62 0 109.5 -18t79.5 -50t48 -75.5t16 -94.5q0 -20 -3 -39.5t-9 -36.5h-315q2 -10 6.5 -24t15.5 -27t30 -22t51 -9q13 0 28.5 1t33.5 6
t38 14.5t40 26.5zM280 379q-23 0 -37.5 -9t-23 -21.5t-12 -26.5t-4.5 -23h151q0 14 -3 28.5t-10.5 26t-22 18.5t-38.5 7zM137 740l139 -70l135 70l50 -93l-191 -119l-189 119z" />
    <glyph glyph-name="Gcircumflex" unicode="&#x11c;" horiz-adv-x="776" 
d="M490 63q-17 -28 -60 -50t-101 -22q-66 0 -123 24.5t-99.5 70.5t-67 111t-24.5 146q0 82 26 149.5t69 116t98 75.5t114 27q54 0 89 -11t56.5 -25t32.5 -28t17 -20l21 72h149v-295h-179q-1 30 -10.5 54t-25.5 40t-36 24.5t-42 8.5q-30 0 -55.5 -15.5t-43.5 -41t-28 -60
t-10 -71.5q0 -38 9 -71.5t26.5 -58.5t43 -39.5t58.5 -14.5q43 0 64 14.5t32 34.5v42h-61v107h332v-107h-40v-250h-200zM522 745l-139 70l-135 -70l-50 93l191 119l189 -119z" />
    <glyph glyph-name="gcircumflex" unicode="&#x11d;" horiz-adv-x="640" 
d="M77 -6q9 -8 26.5 -18.5t40.5 -21t50.5 -17.5t56.5 -7q34 0 56 9t35.5 22.5t19 30t5.5 32.5v34q-5 -7 -15 -16.5t-24.5 -18t-34 -14.5t-43.5 -6q-65 0 -110.5 21.5t-74 56.5t-42 80t-13.5 92q0 58 16 105.5t47.5 81t78.5 52t109 18.5q33 0 62 -13t44 -28l20 31h238v-131
h-60v-299q0 -62 -19 -112.5t-58 -86.5t-97.5 -56t-137.5 -20q-41 0 -76.5 9t-65 22.5t-51.5 28.5t-36 28zM223 255q0 -23 5 -45t14.5 -39t22.5 -28t30 -11q28 0 49.5 31t21.5 85q0 28 -5 52t-14.5 42t-23 28t-29.5 10q-32 0 -51.5 -34t-19.5 -91zM454 546l-139 70l-135 -70
l-50 93l191 119l189 -119z" />
    <glyph glyph-name="Gbreve" unicode="&#x11e;" horiz-adv-x="776" 
d="M490 63q-17 -28 -60 -50t-101 -22q-66 0 -123 24.5t-99.5 70.5t-67 111t-24.5 146q0 82 26 149.5t69 116t98 75.5t114 27q54 0 89 -11t56.5 -25t32.5 -28t17 -20l21 72h149v-295h-179q-1 30 -10.5 54t-25.5 40t-36 24.5t-42 8.5q-30 0 -55.5 -15.5t-43.5 -41t-28 -60
t-10 -71.5q0 -38 9 -71.5t26.5 -58.5t43 -39.5t58.5 -14.5q43 0 64 14.5t32 34.5v42h-61v107h332v-107h-40v-250h-200zM593 942q-5 -40 -22.5 -71t-44.5 -52t-62.5 -32t-74.5 -11q-36 0 -71 10t-63 30.5t-47.5 51.5t-25.5 72h155q5 -32 19 -50t33 -18q20 0 32 19.5t17 49.5z
" />
    <glyph glyph-name="gbreve" unicode="&#x11f;" horiz-adv-x="640" 
d="M77 -6q9 -8 26.5 -18.5t40.5 -21t50.5 -17.5t56.5 -7q34 0 56 9t35.5 22.5t19 30t5.5 32.5v34q-5 -7 -15 -16.5t-24.5 -18t-34 -14.5t-43.5 -6q-65 0 -110.5 21.5t-74 56.5t-42 80t-13.5 92q0 58 16 105.5t47.5 81t78.5 52t109 18.5q33 0 62 -13t44 -28l20 31h238v-131
h-60v-299q0 -62 -19 -112.5t-58 -86.5t-97.5 -56t-137.5 -20q-41 0 -76.5 9t-65 22.5t-51.5 28.5t-36 28zM223 255q0 -23 5 -45t14.5 -39t22.5 -28t30 -11q28 0 49.5 31t21.5 85q0 28 -5 52t-14.5 42t-23 28t-29.5 10q-32 0 -51.5 -34t-19.5 -91zM525 743q-5 -40 -22.5 -71
t-44.5 -52t-62.5 -32t-74.5 -11q-36 0 -71 10t-63 30.5t-47.5 51.5t-25.5 72h155q5 -32 19 -50t33 -18q20 0 32 19.5t17 49.5z" />
    <glyph glyph-name="Gdotaccent" unicode="&#x120;" horiz-adv-x="776" 
d="M490 63q-17 -28 -60 -50t-101 -22q-66 0 -123 24.5t-99.5 70.5t-67 111t-24.5 146q0 82 26 149.5t69 116t98 75.5t114 27q54 0 89 -11t56.5 -25t32.5 -28t17 -20l21 72h149v-295h-179q-1 30 -10.5 54t-25.5 40t-36 24.5t-42 8.5q-30 0 -55.5 -15.5t-43.5 -41t-28 -60
t-10 -71.5q0 -38 9 -71.5t26.5 -58.5t43 -39.5t58.5 -14.5q43 0 64 14.5t32 34.5v42h-61v107h332v-107h-40v-250h-200zM279 845q0 17 7 35t20.5 33t34 24.5t46.5 9.5t46.5 -9.5t34.5 -24.5t21.5 -33t7.5 -35q0 -42 -28 -71.5t-82 -29.5q-24 0 -43.5 9t-34 23.5t-22.5 32.5
t-8 36z" />
    <glyph glyph-name="gdotaccent" unicode="&#x121;" horiz-adv-x="640" 
d="M77 -6q9 -8 26.5 -18.5t40.5 -21t50.5 -17.5t56.5 -7q34 0 56 9t35.5 22.5t19 30t5.5 32.5v34q-5 -7 -15 -16.5t-24.5 -18t-34 -14.5t-43.5 -6q-65 0 -110.5 21.5t-74 56.5t-42 80t-13.5 92q0 58 16 105.5t47.5 81t78.5 52t109 18.5q33 0 62 -13t44 -28l20 31h238v-131
h-60v-299q0 -62 -19 -112.5t-58 -86.5t-97.5 -56t-137.5 -20q-41 0 -76.5 9t-65 22.5t-51.5 28.5t-36 28zM223 255q0 -23 5 -45t14.5 -39t22.5 -28t30 -11q28 0 49.5 31t21.5 85q0 28 -5 52t-14.5 42t-23 28t-29.5 10q-32 0 -51.5 -34t-19.5 -91zM211 646q0 17 7 35t20.5 33
t34 24.5t46.5 9.5t46.5 -9.5t34.5 -24.5t21.5 -33t7.5 -35q0 -42 -28 -71.5t-82 -29.5q-24 0 -43.5 9t-34 23.5t-22.5 32.5t-8 36z" />
    <glyph glyph-name="Gcommaaccent" unicode="&#x122;" horiz-adv-x="776" 
d="M490 63q-17 -28 -60 -50t-101 -22q-66 0 -123 24.5t-99.5 70.5t-67 111t-24.5 146q0 82 26 149.5t69 116t98 75.5t114 27q54 0 89 -11t56.5 -25t32.5 -28t17 -20l21 72h149v-295h-179q-1 30 -10.5 54t-25.5 40t-36 24.5t-42 8.5q-30 0 -55.5 -15.5t-43.5 -41t-28 -60
t-10 -71.5q0 -38 9 -71.5t26.5 -58.5t43 -39.5t58.5 -14.5q43 0 64 14.5t32 34.5v42h-61v107h332v-107h-40v-250h-200zM279 -258q17 21 28.5 36t18.5 29t10 29.5t3 38.5q0 25 -3 67l158 -3v-12q0 -73 -29 -129t-90 -109z" />
    <glyph glyph-name="gcommaaccent" unicode="&#x123;" horiz-adv-x="640" 
d="M77 -6q9 -8 26.5 -18.5t40.5 -21t50.5 -17.5t56.5 -7q34 0 56 9t35.5 22.5t19 30t5.5 32.5v34q-5 -7 -15 -16.5t-24.5 -18t-34 -14.5t-43.5 -6q-65 0 -110.5 21.5t-74 56.5t-42 80t-13.5 92q0 58 16 105.5t47.5 81t78.5 52t109 18.5q33 0 62 -13t44 -28l20 31h238v-131
h-60v-299q0 -62 -19 -112.5t-58 -86.5t-97.5 -56t-137.5 -20q-41 0 -76.5 9t-65 22.5t-51.5 28.5t-36 28zM454 743q-42 -39 -63.5 -81t-21.5 -103q0 -8 0.5 -16t1.5 -17l-161 32v8q0 63 38.5 119.5t104.5 101.5zM223 255q0 -23 5 -45t14.5 -39t22.5 -28t30 -11q28 0 49.5 31
t21.5 85q0 28 -5 52t-14.5 42t-23 28t-29.5 10q-32 0 -51.5 -34t-19.5 -91z" />
    <glyph glyph-name="Hcircumflex" unicode="&#x124;" horiz-adv-x="768" 
d="M25 699h324v-132h-62v-151h190v151h-59v132h325v-132h-58v-435h58v-132h-325v132h59v151h-190v-151h62v-132h-324v132h55v435h-55v132zM518 745l-139 70l-135 -70l-50 93l191 119l189 -119z" />
    <glyph glyph-name="hcircumflex" unicode="&#x125;" horiz-adv-x="661" 
d="M339 0h-314v131h42v489h-42v130h242v-312q4 7 19 20t36.5 26.5t48 23.5t53.5 10q58 0 92.5 -19.5t53 -51t24 -71t5.5 -78.5v-167h47v-131h-257v272q0 13 -1 29t-6.5 30t-17.5 24t-34 10q-19 0 -31.5 -8.5t-19.5 -22t-9.5 -30t-2.5 -32.5v-141h72v-131zM277 779l-139 70
l-135 -70l-50 93l191 119l189 -119z" />
    <glyph glyph-name="Hbar" unicode="&#x126;" horiz-adv-x="768" 
d="M9 498h71v69h-55v132h324v-132h-62v-69h190v69h-59v132h325v-132h-58v-69h69v-81h-69v-285h58v-132h-325v132h59v93h-190v-93h62v-132h-324v132h55v285h-71v81zM477 358v59h-190v-59h190z" />
    <glyph glyph-name="hbar" unicode="&#x127;" horiz-adv-x="670" 
d="M29 613h47v49h-42v88h242v-137h198v-77h-198v-98q4 7 19 20t36.5 26.5t48 23.5t53.5 10q58 0 92.5 -19.5t53 -51t24 -71t5.5 -78.5v-167h47v-131h-257v272q0 13 -1 29t-6.5 30t-17.5 24t-34 10q-19 0 -31.5 -8.5t-19.5 -22t-9.5 -30t-2.5 -32.5v-141h72v-131h-314v131h42
v405h-47v77z" />
    <glyph glyph-name="Itilde" unicode="&#x128;" horiz-adv-x="382" 
d="M25 699h332v-132h-62v-434h62v-133h-332v133h63v434h-63v132zM377 805q-22 -27 -51 -41t-72 -14q-23 0 -38.5 6t-29.5 12.5t-29 12.5t-37 6q-40 0 -70 -30l-44 100q23 29 51 44t66 15q24 0 40 -5.5t30.5 -12t29.5 -12t36 -5.5q22 0 42.5 9t30.5 20z" />
    <glyph glyph-name="itilde" unicode="&#x129;" horiz-adv-x="330" 
d="M305 0h-280v131h42v239h-42v130h232v-369h48v-131zM351 606q-22 -27 -51 -41t-72 -14q-23 0 -38.5 6t-29.5 12.5t-29 12.5t-37 6q-40 0 -70 -30l-44 100q23 29 51 44t66 15q24 0 40 -5.5t30.5 -12t29.5 -12t36 -5.5q22 0 42.5 9t30.5 20z" />
    <glyph glyph-name="Imacron" unicode="&#x12a;" horiz-adv-x="382" 
d="M25 699h332v-132h-62v-434h62v-133h-332v133h63v434h-63v132zM31 898h326v-135h-326v135z" />
    <glyph glyph-name="imacron" unicode="&#x12b;" horiz-adv-x="330" 
d="M305 0h-280v131h42v239h-42v130h232v-369h48v-131zM6 698h299l19 -133h-318v133z" />
    <glyph glyph-name="Ibreve" unicode="&#x12c;" horiz-adv-x="382" 
d="M25 699h332v-132h-62v-434h62v-133h-332v133h63v434h-63v132zM397 919q-5 -40 -22.5 -71t-44.5 -52t-62.5 -32t-74.5 -11q-36 0 -71 10t-63 30.5t-47.5 51.5t-25.5 72h155q5 -32 19 -50t33 -18q20 0 32 19.5t17 49.5z" />
    <glyph glyph-name="ibreve" unicode="&#x12d;" horiz-adv-x="330" 
d="M305 0h-280v131h42v239h-42v130h232v-369h48v-131zM370 743q-5 -40 -22.5 -71t-44.5 -52t-62.5 -32t-74.5 -11q-36 0 -71 10t-63 30.5t-47.5 51.5t-25.5 72h155q5 -32 19 -50t33 -18q20 0 32 19.5t17 49.5z" />
    <glyph glyph-name="Iogonek" unicode="&#x12e;" horiz-adv-x="382" 
d="M25 699h332v-132h-62v-434h62v-133h-114l-19 -11q-20 -11 -29.5 -30.5t-9.5 -37.5q0 -21 17 -35t35 -14q22 0 55.5 9.5t64.5 20.5v-143q-23 -10 -57 -17.5t-81 -7.5q-34 0 -65 6.5t-55 24.5t-38 49.5t-14 82.5q0 39 11 63t22 40h-55v133h63v434h-63v132z" />
    <glyph glyph-name="iogonek" unicode="&#x12f;" horiz-adv-x="330" 
d="M305 0h-99l-19 -11q-20 -11 -29.5 -30.5t-9.5 -37.5q0 -21 17 -35t35 -14q22 0 55.5 9.5t64.5 20.5v-143q-23 -10 -57 -17.5t-81 -7.5q-34 0 -65 6.5t-55 24.5t-38 49.5t-14 82.5q0 39 11 63t22 40h-18v131h42v239h-42v130h232v-369h48v-131zM53 646q0 17 7 35t20.5 33
t34 24.5t46.5 9.5t46.5 -9.5t34.5 -24.5t21.5 -33t7.5 -35q0 -42 -28 -71.5t-82 -29.5q-24 0 -43.5 9t-34 23.5t-22.5 32.5t-8 36z" />
    <glyph glyph-name="Idotaccent" unicode="&#x130;" horiz-adv-x="382" 
d="M25 699h332v-132h-62v-434h62v-133h-332v133h63v434h-63v132zM82 845q0 17 7 35t20.5 33t34 24.5t46.5 9.5t46.5 -9.5t34.5 -24.5t21.5 -33t7.5 -35q0 -42 -28 -71.5t-82 -29.5q-24 0 -43.5 9t-34 23.5t-22.5 32.5t-8 36z" />
    <glyph glyph-name="dotlessi" unicode="&#x131;" horiz-adv-x="330" 
d="M305 0h-280v131h42v239h-42v130h232v-369h48v-131z" />
    <glyph glyph-name="IJ" unicode="&#x132;" horiz-adv-x="734" 
d="M277 -61q19 -9 45 -9q37 0 60 32t23 112v494h-110v-435h62v-133h-332v133h63v434h-63v132h670v-131h-83v-494q0 -66 -15 -118t-48.5 -87.5t-87.5 -54t-131 -18.5q-14 0 -27.5 3t-24.5 8z" />
    <glyph glyph-name="ij" unicode="&#x133;" horiz-adv-x="586" 
d="M305 0h-280v131h42v239h-42v130h232v-369h48v-131zM53 646q0 17 7 35t20.5 33t34 24.5t46.5 9.5t46.5 -9.5t34.5 -24.5t21.5 -33t7.5 -35q0 -42 -28 -71.5t-82 -29.5q-24 0 -43.5 9t-34 23.5t-22.5 32.5t-8 36zM341 370h-42v130h232v-430q0 -47 -10 -96t-42 -90t-92 -67
t-160 -26v134q43 0 66.5 16t34 38.5t12 47.5t1.5 43v300zM327 646q0 17 7 35t20.5 33t34 24.5t46.5 9.5t46.5 -9.5t34.5 -24.5t21.5 -33t7.5 -35q0 -42 -28 -71.5t-82 -29.5q-24 0 -43.5 9t-34 23.5t-22.5 32.5t-8 36z" />
    <glyph glyph-name="Jcircumflex" unicode="&#x134;" horiz-adv-x="463" 
d="M20 -61q19 -9 45 -9q37 0 60 32t23 112v494h-86v131h376v-131h-83v-494q0 -66 -15 -118t-48.5 -87.5t-87.5 -54t-131 -18.5q-14 0 -27.5 3t-24.5 8zM389 745l-139 70l-135 -70l-50 93l191 119l189 -119z" />
    <glyph glyph-name="jcircumflex" unicode="&#x135;" horiz-adv-x="360" 
d="M128 370h-42v130h232v-430q0 -47 -10 -96t-42 -90t-92 -67t-160 -26v134q43 0 66.5 16t34 38.5t12 47.5t1.5 43v300zM339 540l-139 70l-135 -70l-50 93l191 119l189 -119z" />
    <glyph glyph-name="Kcommaaccent" unicode="&#x136;" horiz-adv-x="815" 
d="M340 570h-54v-163l186 163h-72v129h333v-129h-58l-145 -125l202 -315h58v-130h-390v130h68l-108 170l-74 -63v-107h54v-130h-315v130h54v440h-54v129h315v-129zM298 -258q17 21 28.5 36t18.5 29t10 29.5t3 38.5q0 25 -3 67l158 -3v-12q0 -73 -29 -129t-90 -109z" />
    <glyph glyph-name="kcommaaccent" unicode="&#x137;" horiz-adv-x="654" 
d="M38 0v130h41v489h-41v131h231v-452l116 69h-72v132h280v-132h-77l-68 -43l135 -193h50v-131h-296v131h42l-76 108l-35 -24v-84h37v-131h-267zM218 -258q17 21 28.5 36t18.5 29t10 29.5t3 38.5q0 25 -3 67l158 -3v-12q0 -73 -29 -129t-90 -109z" />
    <glyph glyph-name="kgreenlandic" unicode="&#x138;" horiz-adv-x="654" 
d="M38 0v130h41v237h-41v131h231v-200l116 69h-72v132h280v-132h-77l-68 -43l135 -193h50v-131h-296v131h42l-76 108l-35 -24v-84h37v-131h-267z" />
    <glyph glyph-name="Lacute" unicode="&#x139;" horiz-adv-x="610" 
d="M25 699h316v-132h-53v-434h129v127h168v-260h-560v133h55v434h-55v132zM443 900l-151 -142h-125l78 142h198z" />
    <glyph glyph-name="lacute" unicode="&#x13a;" horiz-adv-x="332" 
d="M317 0h-292v131h43v490h-42v129h232v-619h59v-131zM369 924l-151 -142h-125l78 142h198z" />
    <glyph glyph-name="Lcommaaccent" unicode="&#x13b;" horiz-adv-x="610" 
d="M25 699h316v-132h-53v-434h129v127h168v-260h-560v133h55v434h-55v132zM196 -258q17 21 28.5 36t18.5 29t10 29.5t3 38.5q0 25 -3 67l158 -3v-12q0 -73 -29 -129t-90 -109z" />
    <glyph glyph-name="lcommaaccent" unicode="&#x13c;" horiz-adv-x="332" 
d="M317 0h-292v131h43v490h-42v129h232v-619h59v-131zM57 -258q17 21 28.5 36t18.5 29t10 29.5t3 38.5q0 25 -3 67l158 -3v-12q0 -73 -29 -129t-90 -109z" />
    <glyph glyph-name="Lcaron" unicode="&#x13d;" horiz-adv-x="610" 
d="M25 699h316v-132h-53v-434h129v127h168v-260h-560v133h55v434h-55v132zM333 459q37 43 57.5 89.5t20.5 113.5v17t-1 19l147 -35q0 -72 -34 -136.5t-97 -115.5z" />
    <glyph glyph-name="lcaron" unicode="&#x13e;" horiz-adv-x="486" 
d="M317 0h-292v131h43v490h-42v129h232v-619h59v-131zM282 527q38 39 58.5 81t20.5 102q0 8 -0.5 16.5t-1.5 18.5l149 -33q0 -66 -34 -124t-98 -104z" />
    <glyph glyph-name="Ldot" unicode="&#x13f;" horiz-adv-x="610" 
d="M25 699h316v-132h-53v-434h129v127h168v-260h-560v133h55v434h-55v132zM324 415q0 19 7 38.5t21.5 36t35 27t47.5 10.5t48 -10.5t35.5 -27t22 -36t7.5 -38.5q0 -45 -29.5 -75.5t-83.5 -30.5q-23 0 -43.5 9t-35.5 24t-23.5 34t-8.5 39z" />
    <glyph glyph-name="ldot" unicode="&#x140;" horiz-adv-x="539" 
d="M317 0h-292v131h43v490h-42v129h232v-619h59v-131zM291 402q0 19 7 38.5t21.5 36t35 27t47.5 10.5t48 -10.5t35.5 -27t22 -36t7.5 -38.5q0 -45 -29.5 -75.5t-83.5 -30.5q-23 0 -43.5 9t-35.5 24t-23.5 34t-8.5 39z" />
    <glyph glyph-name="Lslash" unicode="&#x141;" horiz-adv-x="610" 
d="M25 699h316v-132h-53v-97l77 31v-133l-77 -31v-204h129v127h168v-260h-560v133h55v121l-57 -23v133l57 23v180h-55v132z" />
    <glyph glyph-name="lslash" unicode="&#x142;" horiz-adv-x="332" 
d="M-22 305l90 53v263h-42v129h232v-278l97 58v-133l-97 -58v-208h59v-131h-292v131h43v94l-90 -53v133z" />
    <glyph glyph-name="Nacute" unicode="&#x143;" horiz-adv-x="816" 
d="M791 570h-66v-570h-215l-255 381v-252h77v-129h-307v129h59v441h-58v129h287l246 -367v238h-69v129h301v-129zM546 900l-151 -142h-125l78 142h198z" />
    <glyph glyph-name="nacute" unicode="&#x144;" horiz-adv-x="647" 
d="M333 0h-308v131h42v239h-42v130h213l23 -62q26 35 60.5 57.5t82.5 22.5q58 0 93.5 -19.5t55 -51t26 -71t6.5 -78.5v-167h47v-131h-252v273q0 13 -0.5 29t-5.5 30t-16.5 24t-33.5 10q-19 0 -31.5 -8.5t-19.5 -22t-9.5 -30t-2.5 -32.5v-142h72v-131zM461 701l-128 -142
h-148l78 142h198z" />
    <glyph glyph-name="Ncommaaccent" unicode="&#x145;" horiz-adv-x="816" 
d="M791 570h-66v-570h-215l-255 381v-252h77v-129h-307v129h59v441h-58v129h287l246 -367v238h-69v129h301v-129zM299 -258q17 21 28.5 36t18.5 29t10 29.5t3 38.5q0 25 -3 67l158 -3v-12q0 -73 -29 -129t-90 -109z" />
    <glyph glyph-name="ncommaaccent" unicode="&#x146;" horiz-adv-x="647" 
d="M333 0h-308v131h42v239h-42v130h213l23 -62q26 35 60.5 57.5t82.5 22.5q58 0 93.5 -19.5t55 -51t26 -71t6.5 -78.5v-167h47v-131h-252v273q0 13 -0.5 29t-5.5 30t-16.5 24t-33.5 10q-19 0 -31.5 -8.5t-19.5 -22t-9.5 -30t-2.5 -32.5v-142h72v-131zM214 -258
q17 21 28.5 36t18.5 29t10 29.5t3 38.5q0 25 -3 67l158 -3v-12q0 -73 -29 -129t-90 -109z" />
    <glyph glyph-name="Ncaron" unicode="&#x147;" horiz-adv-x="816" 
d="M791 570h-66v-570h-215l-255 381v-252h77v-129h-307v129h59v441h-58v129h287l246 -367v238h-69v129h301v-129zM274 939l139 -70l135 70l50 -93l-191 -119l-189 119z" />
    <glyph glyph-name="ncaron" unicode="&#x148;" horiz-adv-x="647" 
d="M333 0h-308v131h42v239h-42v130h213l23 -62q26 35 60.5 57.5t82.5 22.5q58 0 93.5 -19.5t55 -51t26 -71t6.5 -78.5v-167h47v-131h-252v273q0 13 -0.5 29t-5.5 30t-16.5 24t-33.5 10q-19 0 -31.5 -8.5t-19.5 -22t-9.5 -30t-2.5 -32.5v-142h72v-131zM156 740l139 -70
l135 70l50 -93l-191 -119l-189 119z" />
    <glyph glyph-name="napostrophe" unicode="&#x149;" horiz-adv-x="800" 
d="M486 0h-308v131h42v239h-42v130h213l23 -62q26 35 60.5 57.5t82.5 22.5q58 0 93.5 -19.5t55 -51t26 -71t6.5 -78.5v-167h47v-131h-252v273q0 13 -0.5 29t-5.5 30t-16.5 24t-33.5 10q-19 0 -31.5 -8.5t-19.5 -22t-9.5 -30t-2.5 -32.5v-142h72v-131zM-21 458q17 21 28.5 36
t18.5 29t10 29.5t3 38.5q0 25 -3 67l158 -3v-12q0 -73 -29 -129t-90 -109z" />
    <glyph glyph-name="Eng" unicode="&#x14a;" horiz-adv-x="816" 
d="M791 570h-66v-496q0 -66 -15 -118t-48.5 -87.5t-87.5 -54t-131 -18.5q-14 0 -27.5 3t-24.5 8l-1 132q19 -9 45 -9q27 0 46.5 16t29.5 54l-256 381v-252h77v-129h-307v129h59v441h-58v129h287l246 -367v238h-69v129h301v-129z" />
    <glyph glyph-name="eng" unicode="&#x14b;" horiz-adv-x="620" 
d="M252 -61q19 -9 45 -9q35 0 58 28.5t25 99.5v215q0 13 -0.5 29t-5.5 30t-16.5 24t-33.5 10q-19 0 -31.5 -8.5t-19.5 -22t-9.5 -30t-2.5 -32.5v-142h72v-131h-308v131h42v239h-42v130h213l23 -62q26 35 60.5 57.5t82.5 22.5q58 0 93.5 -19.5t55 -51t26 -71t6.5 -78.5
l2 -233q0 -66 -15 -116.5t-48.5 -84.5t-87.5 -51t-131 -17q-14 0 -27.5 3t-24.5 8z" />
    <glyph glyph-name="Omacron" unicode="&#x14c;" 
d="M373 -18q-78 0 -144 23t-113.5 69t-74 115.5t-26.5 163.5q0 81 25.5 148t72 115.5t111 75t142.5 26.5q92 0 159.5 -26.5t112 -75t66 -117.5t21.5 -153q0 -85 -23 -152.5t-68 -114.5t-110.5 -72t-150.5 -25zM373 139q24 0 42.5 15t32 42t20.5 65t7 85q0 46 -6.5 85.5
t-20 69t-34.5 46.5t-50 17q-23 0 -41.5 -15.5t-32 -43.5t-21 -67t-7.5 -85q0 -49 8.5 -88.5t23 -67.5t35 -43t44.5 -15zM91 897h558v-133h-558v133z" />
    <glyph glyph-name="omacron" unicode="&#x14d;" horiz-adv-x="574" 
d="M290 -13q-54 0 -104.5 16.5t-89.5 49.5t-62 83t-23 116q0 63 23.5 111.5t62 81.5t88 50t100.5 17q59 0 110 -18.5t88.5 -53t58.5 -84t21 -112.5q0 -62 -21.5 -109.5t-58.5 -80.5t-86.5 -50t-106.5 -17zM290 115q16 0 28.5 10t21.5 28t13.5 42.5t4.5 52.5t-5 52.5
t-14 42.5t-22.5 28.5t-31.5 10.5q-15 0 -27.5 -10t-21.5 -28t-14.5 -42t-5.5 -51q0 -62 21 -99t53 -37zM8 698h558v-133h-558v133z" />
    <glyph glyph-name="Obreve" unicode="&#x14e;" 
d="M373 -18q-78 0 -144 23t-113.5 69t-74 115.5t-26.5 163.5q0 81 25.5 148t72 115.5t111 75t142.5 26.5q92 0 159.5 -26.5t112 -75t66 -117.5t21.5 -153q0 -85 -23 -152.5t-68 -114.5t-110.5 -72t-150.5 -25zM373 139q24 0 42.5 15t32 42t20.5 65t7 85q0 46 -6.5 85.5
t-20 69t-34.5 46.5t-50 17q-23 0 -41.5 -15.5t-32 -43.5t-21 -67t-7.5 -85q0 -49 8.5 -88.5t23 -67.5t35 -43t44.5 -15zM585 919q-5 -40 -22.5 -71t-44.5 -52t-62.5 -32t-74.5 -11q-36 0 -71 10t-63 30.5t-47.5 51.5t-25.5 72h155q5 -32 19 -50t33 -18q20 0 32 19.5t17 49.5
z" />
    <glyph glyph-name="obreve" unicode="&#x14f;" horiz-adv-x="574" 
d="M290 -13q-54 0 -104.5 16.5t-89.5 49.5t-62 83t-23 116q0 63 23.5 111.5t62 81.5t88 50t100.5 17q59 0 110 -18.5t88.5 -53t58.5 -84t21 -112.5q0 -62 -21.5 -109.5t-58.5 -80.5t-86.5 -50t-106.5 -17zM290 115q16 0 28.5 10t21.5 28t13.5 42.5t4.5 52.5t-5 52.5
t-14 42.5t-22.5 28.5t-31.5 10.5q-15 0 -27.5 -10t-21.5 -28t-14.5 -42t-5.5 -51q0 -62 21 -99t53 -37zM506 720q-5 -40 -22.5 -71t-44.5 -52t-62.5 -32t-74.5 -11q-36 0 -71 10t-63 30.5t-47.5 51.5t-25.5 72h155q5 -32 19 -50t33 -18q20 0 32 19.5t17 49.5z" />
    <glyph glyph-name="Ohungarumlaut" unicode="&#x150;" 
d="M373 -18q-78 0 -144 23t-113.5 69t-74 115.5t-26.5 163.5q0 81 25.5 148t72 115.5t111 75t142.5 26.5q92 0 159.5 -26.5t112 -75t66 -117.5t21.5 -153q0 -85 -23 -152.5t-68 -114.5t-110.5 -72t-150.5 -25zM373 139q24 0 42.5 15t32 42t20.5 65t7 85q0 46 -6.5 85.5
t-20 69t-34.5 46.5t-50 17q-23 0 -41.5 -15.5t-32 -43.5t-21 -67t-7.5 -85q0 -49 8.5 -88.5t23 -67.5t35 -43t44.5 -15zM449 900l-151 -142h-125l78 142h198zM691 900l-151 -142h-125l78 142h198z" />
    <glyph glyph-name="ohungarumlaut" unicode="&#x151;" horiz-adv-x="574" 
d="M290 -13q-54 0 -104.5 16.5t-89.5 49.5t-62 83t-23 116q0 63 23.5 111.5t62 81.5t88 50t100.5 17q59 0 110 -18.5t88.5 -53t58.5 -84t21 -112.5q0 -62 -21.5 -109.5t-58.5 -80.5t-86.5 -50t-106.5 -17zM290 115q16 0 28.5 10t21.5 28t13.5 42.5t4.5 52.5t-5 52.5
t-14 42.5t-22.5 28.5t-31.5 10.5q-15 0 -27.5 -10t-21.5 -28t-14.5 -42t-5.5 -51q0 -62 21 -99t53 -37zM367 701l-151 -142h-125l78 142h198zM609 701l-151 -142h-125l78 142h198z" />
    <glyph glyph-name="OE" unicode="&#x152;" horiz-adv-x="978" 
d="M408 700h545v-222h-173v89h-160v-138h190v-133h-190v-163h160v93h173v-226h-490q-30 -3 -60 -3q-84 0 -153 22t-118 67t-76 112t-27 157q1 79 29.5 142.5t78.5 108.5t119 69.5t152 24.5zM413 149v408q-6 3 -10 3q-25 0 -49.5 -15.5t-44 -43.5t-32 -66.5t-12.5 -84.5
t12.5 -83t33 -63.5t45.5 -40.5t50 -14h7z" />
    <glyph glyph-name="oe" unicode="&#x153;" horiz-adv-x="900" 
d="M884 69q-56 -48 -118 -67.5t-140 -19.5q-43 0 -86.5 13t-80.5 40q-35 -24 -78 -36t-91 -12q-54 0 -104.5 16.5t-89.5 49.5t-62 83t-23 116q0 63 23.5 111.5t62 81.5t88 50t100.5 17t94.5 -14t78.5 -38q35 26 78.5 40t94.5 14q62 0 109.5 -18t79.5 -50t48 -75.5t16 -94.5
q0 -20 -3 -39.5t-9 -36.5h-312q-1 -2 -1 -4t-1 -4q3 -11 8 -23.5t16.5 -24t30 -19t47.5 -7.5q13 0 28.5 1t33.5 6t38 14.5t40 26.5zM290 115q16 0 28.5 10t21.5 28t13.5 42.5t4.5 52.5t-5 52.5t-14 42.5t-22.5 28.5t-31.5 10.5q-15 0 -27.5 -10t-21.5 -28t-14.5 -42
t-5.5 -51q0 -62 21 -99t53 -37zM637 379q-23 0 -37.5 -9t-23 -21.5t-12 -26.5t-4.5 -23h151q0 14 -3 28.5t-10.5 26t-22 18.5t-38.5 7z" />
    <glyph glyph-name="Racute" unicode="&#x154;" horiz-adv-x="737" 
d="M25 699h325q87 0 141 -16t84.5 -44t41 -65.5t10.5 -80.5q0 -29 -11 -54t-30.5 -43.5t-46 -31t-57.5 -16.5q26 -4 49.5 -16.5t41.5 -31.5t29 -43t11 -51q0 -32 5 -50t19 -18q23 0 23 32v33h67v-55q0 -31 -7 -60t-24 -51t-45 -35.5t-70 -13.5q-99 0 -146.5 49t-47.5 137
q0 34 -3 56t-13.5 34.5t-30.5 17.5t-53 5v-155h61v-132h-323v132h56v436h-56v131zM287 569v-170h45q44 0 70 20.5t26 60.5q0 45 -23.5 67t-67.5 22h-50zM506 900l-151 -142h-125l78 142h198z" />
    <glyph glyph-name="racute" unicode="&#x155;" horiz-adv-x="414" 
d="M308 0h-283v131h44v239h-43v130h188l30 -64q10 18 21 34t28 28.5t42 19.5t64 7v-180q-68 0 -104.5 -22.5t-36.5 -88.5v-103h50v-131zM403 701l-151 -142h-125l78 142h198z" />
    <glyph glyph-name="Rcommaaccent" unicode="&#x156;" horiz-adv-x="737" 
d="M25 699h325q87 0 141 -16t84.5 -44t41 -65.5t10.5 -80.5q0 -29 -11 -54t-30.5 -43.5t-46 -31t-57.5 -16.5q26 -4 49.5 -16.5t41.5 -31.5t29 -43t11 -51q0 -32 5 -50t19 -18q23 0 23 32v33h67v-55q0 -31 -7 -60t-24 -51t-45 -35.5t-70 -13.5q-99 0 -146.5 49t-47.5 137
q0 34 -3 56t-13.5 34.5t-30.5 17.5t-53 5v-155h61v-132h-323v132h56v436h-56v131zM259 -258q17 21 28.5 36t18.5 29t10 29.5t3 38.5q0 25 -3 67l158 -3v-12q0 -73 -29 -129t-90 -109zM287 569v-170h45q44 0 70 20.5t26 60.5q0 45 -23.5 67t-67.5 22h-50z" />
    <glyph glyph-name="rcommaaccent" unicode="&#x157;" horiz-adv-x="414" 
d="M308 0h-283v131h44v239h-43v130h188l30 -64q10 18 21 34t28 28.5t42 19.5t64 7v-180q-68 0 -104.5 -22.5t-36.5 -88.5v-103h50v-131zM98 -258q17 21 28.5 36t18.5 29t10 29.5t3 38.5q0 25 -3 67l158 -3v-12q0 -73 -29 -129t-90 -109z" />
    <glyph glyph-name="Rcaron" unicode="&#x158;" horiz-adv-x="737" 
d="M25 699h325q87 0 141 -16t84.5 -44t41 -65.5t10.5 -80.5q0 -29 -11 -54t-30.5 -43.5t-46 -31t-57.5 -16.5q26 -4 49.5 -16.5t41.5 -31.5t29 -43t11 -51q0 -32 5 -50t19 -18q23 0 23 32v33h67v-55q0 -31 -7 -60t-24 -51t-45 -35.5t-70 -13.5q-99 0 -146.5 49t-47.5 137
q0 34 -3 56t-13.5 34.5t-30.5 17.5t-53 5v-155h61v-132h-323v132h56v436h-56v131zM287 569v-170h45q44 0 70 20.5t26 60.5q0 45 -23.5 67t-67.5 22h-50zM234 939l139 -70l135 70l50 -93l-191 -119l-189 119z" />
    <glyph glyph-name="rcaron" unicode="&#x159;" horiz-adv-x="414" 
d="M308 0h-283v131h44v239h-43v130h188l30 -64q10 18 21 34t28 28.5t42 19.5t64 7v-180q-68 0 -104.5 -22.5t-36.5 -88.5v-103h50v-131zM73 740l139 -70l135 70l50 -93l-191 -119l-189 119z" />
    <glyph glyph-name="Sacute" unicode="&#x15a;" horiz-adv-x="710" 
d="M25 0v252h186q0 -31 14 -50.5t33.5 -30.5t41 -15t37.5 -4q13 0 28 2t27.5 7.5t21 15t8.5 25.5q0 19 -28.5 31.5t-71 24.5t-92.5 27.5t-92.5 42.5t-71 68.5t-28.5 105.5q0 55 23.5 96t59 67t77 39t78.5 13q31 0 62 -5.5t59 -17.5t50.5 -31.5t37.5 -47.5l10 84h172v-251
h-181q0 28 -10 49.5t-27.5 36.5t-41 22.5t-49.5 7.5q-11 0 -23 -3.5t-22.5 -10t-17 -16.5t-6.5 -23q0 -26 29.5 -43t73.5 -32t95 -32.5t95 -43.5t73.5 -65t29.5 -98t-24.5 -99t-63 -65.5t-85.5 -36.5t-92 -11q-38 0 -70 8t-58 21t-46.5 29.5t-34.5 33.5l-11 -77h-175z
M549 900l-151 -142h-125l78 142h198z" />
    <glyph glyph-name="sacute" unicode="&#x15b;" horiz-adv-x="508" 
d="M15 0v180h134q0 -20 12.5 -33t29.5 -20.5t35 -10.5t29 -3q15 0 29.5 6.5t14.5 27.5q0 14 -20.5 22.5t-52 16.5t-67.5 19t-67.5 30.5t-52 51t-20.5 80.5q0 38 17.5 65.5t44 45t57 26t57.5 8.5q51 0 92 -23t57 -55l8 66h123v-180h-130q0 16 -9 29.5t-23.5 24t-32.5 16.5
t-37 6q-16 0 -27.5 -8.5t-11.5 -27.5q0 -17 21 -27t52.5 -19.5t68.5 -21t68.5 -30.5t52.5 -48.5t21 -75.5q0 -35 -15.5 -63t-41 -47.5t-59.5 -29.5t-70 -10q-54 0 -94.5 22t-58.5 51l-9 -61h-125zM428 701l-151 -142h-125l78 142h198z" />
    <glyph glyph-name="Scircumflex" unicode="&#x15c;" horiz-adv-x="710" 
d="M25 0v252h186q0 -31 14 -50.5t33.5 -30.5t41 -15t37.5 -4q13 0 28 2t27.5 7.5t21 15t8.5 25.5q0 19 -28.5 31.5t-71 24.5t-92.5 27.5t-92.5 42.5t-71 68.5t-28.5 105.5q0 55 23.5 96t59 67t77 39t78.5 13q31 0 62 -5.5t59 -17.5t50.5 -31.5t37.5 -47.5l10 84h172v-251
h-181q0 28 -10 49.5t-27.5 36.5t-41 22.5t-49.5 7.5q-11 0 -23 -3.5t-22.5 -10t-17 -16.5t-6.5 -23q0 -26 29.5 -43t73.5 -32t95 -32.5t95 -43.5t73.5 -65t29.5 -98t-24.5 -99t-63 -65.5t-85.5 -36.5t-92 -11q-38 0 -70 8t-58 21t-46.5 29.5t-34.5 33.5l-11 -77h-175z
M489 745l-139 70l-135 -70l-50 93l191 119l189 -119z" />
    <glyph glyph-name="scircumflex" unicode="&#x15d;" horiz-adv-x="508" 
d="M15 0v180h134q0 -20 12.5 -33t29.5 -20.5t35 -10.5t29 -3q15 0 29.5 6.5t14.5 27.5q0 14 -20.5 22.5t-52 16.5t-67.5 19t-67.5 30.5t-52 51t-20.5 80.5q0 38 17.5 65.5t44 45t57 26t57.5 8.5q51 0 92 -23t57 -55l8 66h123v-180h-130q0 16 -9 29.5t-23.5 24t-32.5 16.5
t-37 6q-16 0 -27.5 -8.5t-11.5 -27.5q0 -17 21 -27t52.5 -19.5t68.5 -21t68.5 -30.5t52.5 -48.5t21 -75.5q0 -35 -15.5 -63t-41 -47.5t-59.5 -29.5t-70 -10q-54 0 -94.5 22t-58.5 51l-9 -61h-125zM388 546l-139 70l-135 -70l-50 93l191 119l189 -119z" />
    <glyph glyph-name="Scedilla" unicode="&#x15e;" horiz-adv-x="710" 
d="M459 -98q0 -18 -6.5 -36.5t-20.5 -33t-37 -23.5t-57 -9q-23 0 -47.5 6t-40.5 14l32 62q24 -11 48 -11q33 0 33 24t-33 24q-9 0 -16 -0.5t-12 -1.5l-10 17l22 70q-35 14 -60.5 33.5t-42.5 39.5l-11 -77h-175v252h186q0 -31 14 -50.5t33.5 -30.5t41 -15t37.5 -4q13 0 28 2
t27.5 7.5t21 15t8.5 25.5q0 19 -28.5 31.5t-71 24.5t-92.5 27.5t-92.5 42.5t-71 68.5t-28.5 105.5q0 55 23.5 96t59 67t77 39t78.5 13q31 0 62 -5.5t59 -17.5t50.5 -31.5t37.5 -47.5l10 84h172v-251h-181q0 28 -10 49.5t-27.5 36.5t-41 22.5t-49.5 7.5q-11 0 -23 -3.5
t-22.5 -10t-17 -16.5t-6.5 -23q0 -26 29.5 -43t73.5 -32t95 -32.5t95 -43.5t73.5 -65t29.5 -98t-24.5 -99t-63 -65.5t-85.5 -36.5t-92 -11q-8 0 -16.5 0.5t-16.5 1.5l-5 -12q36 -3 56.5 -23.5t20.5 -49.5z" />
    <glyph glyph-name="scedilla" unicode="&#x15f;" horiz-adv-x="508" 
d="M358 -98q0 -18 -6.5 -36.5t-20.5 -33t-37 -23.5t-57 -9q-23 0 -47.5 6t-40.5 14l32 62q24 -11 48 -11q33 0 33 24t-33 24q-9 0 -16 -0.5t-12 -1.5l-10 17l23 73q-44 21 -65 54l-9 -61h-125v180h134q0 -20 12.5 -33t29.5 -20.5t35 -10.5t29 -3q15 0 29.5 6.5t14.5 27.5
q0 14 -20.5 22.5t-52 16.5t-67.5 19t-67.5 30.5t-52 51t-20.5 80.5q0 38 17.5 65.5t44 45t57 26t57.5 8.5q51 0 92 -23t57 -55l8 66h123v-180h-130q0 16 -9 29.5t-23.5 24t-32.5 16.5t-37 6q-16 0 -27.5 -8.5t-11.5 -27.5q0 -17 21 -27t52.5 -19.5t68.5 -21t68.5 -30.5
t52.5 -48.5t21 -75.5q0 -35 -15.5 -63t-41 -47.5t-59.5 -29.5t-70 -10q-10 0 -15 1l-6 -14q36 -3 56.5 -23.5t20.5 -49.5z" />
    <glyph glyph-name="Scaron" unicode="&#x160;" horiz-adv-x="710" 
d="M233 940l139 -70l135 70l50 -93l-191 -119l-189 119zM25 0v252h186q0 -31 14 -50.5t33.5 -30.5t41 -15t37.5 -4q13 0 28 2t27.5 7.5t21 15t8.5 25.5q0 19 -28.5 31.5t-71 24.5t-92.5 27.5t-92.5 42.5t-71 68.5t-28.5 105.5q0 55 23.5 96t59 67t77 39t78.5 13
q31 0 62 -5.5t59 -17.5t50.5 -31.5t37.5 -47.5l10 84h172v-251h-181q0 28 -10 49.5t-27.5 36.5t-41 22.5t-49.5 7.5q-11 0 -23 -3.5t-22.5 -10t-17 -16.5t-6.5 -23q0 -26 29.5 -43t73.5 -32t95 -32.5t95 -43.5t73.5 -65t29.5 -98t-24.5 -99t-63 -65.5t-85.5 -36.5t-92 -11
q-38 0 -70 8t-58 21t-46.5 29.5t-34.5 33.5l-11 -77h-175z" />
    <glyph glyph-name="scaron" unicode="&#x161;" horiz-adv-x="508" 
d="M112 742l139 -70l135 70l50 -93l-191 -119l-189 119zM15 0v180h134q0 -20 12.5 -33t29.5 -20.5t35 -10.5t29 -3q15 0 29.5 6.5t14.5 27.5q0 14 -20.5 22.5t-52 16.5t-67.5 19t-67.5 30.5t-52 51t-20.5 80.5q0 38 17.5 65.5t44 45t57 26t57.5 8.5q51 0 92 -23t57 -55l8 66
h123v-180h-130q0 16 -9 29.5t-23.5 24t-32.5 16.5t-37 6q-16 0 -27.5 -8.5t-11.5 -27.5q0 -17 21 -27t52.5 -19.5t68.5 -21t68.5 -30.5t52.5 -48.5t21 -75.5q0 -35 -15.5 -63t-41 -47.5t-59.5 -29.5t-70 -10q-54 0 -94.5 22t-58.5 51l-9 -61h-125z" />
    <glyph glyph-name="Tcommaaccent" unicode="&#x162;" horiz-adv-x="701" 
d="M686 699v-260h-147v128h-84v-434h83v-133h-372v133h82v434h-86v-128h-147v260h671zM241 -258q17 21 28.5 36t18.5 29t10 29.5t3 38.5q0 25 -3 67l158 -3v-12q0 -73 -29 -129t-90 -109z" />
    <glyph glyph-name="tcommaaccent" unicode="&#x163;" horiz-adv-x="363" 
d="M15 500h54v92l184 59v-151h95v-130h-95v-178q0 -7 -0.5 -14t-0.5 -15q0 -20 5.5 -35.5t27.5 -15.5q10 0 29.5 5.5t33.5 11.5v-128q-11 -5 -28 -8.5t-35 -5.5t-33.5 -3.5t-24.5 -1.5q-56 0 -87.5 15t-46.5 42t-19 66t-5 87v178h-54v130zM72 -258q17 21 28.5 36t18.5 29
t10 29.5t3 38.5q0 25 -3 67l158 -3v-12q0 -73 -29 -129t-90 -109z" />
    <glyph glyph-name="Tcaron" unicode="&#x164;" horiz-adv-x="701" 
d="M686 699v-260h-147v128h-84v-434h83v-133h-372v133h82v434h-86v-128h-147v260h671zM216 939l139 -70l135 70l50 -93l-191 -119l-189 119z" />
    <glyph glyph-name="tcaron" unicode="&#x165;" horiz-adv-x="488" 
d="M15 500h54v92l184 59v-151h95v-130h-95v-178q0 -7 -0.5 -14t-0.5 -15q0 -20 5.5 -35.5t27.5 -15.5q10 0 29.5 5.5t33.5 11.5v-128q-11 -5 -28 -8.5t-35 -5.5t-33.5 -3.5t-24.5 -1.5q-56 0 -87.5 15t-46.5 42t-19 66t-5 87v178h-54v130zM277 547q31 37 47.5 76.5
t16.5 96.5v16t-1 16l122 -30v-8q0 -60 -29 -112.5t-79 -94.5z" />
    <glyph glyph-name="Tbar" unicode="&#x166;" horiz-adv-x="701" 
d="M71 357h177v210h-86v-128h-147v260h671v-260h-147v128h-84v-210h174v-133h-174v-91h83v-133h-372v133h82v91h-177v133z" />
    <glyph glyph-name="tbar" unicode="&#x167;" horiz-adv-x="363" 
d="M-97 698h558v-133h-208v-65h95v-130h-95v-178q0 -7 -0.5 -14t-0.5 -15q0 -20 5.5 -35.5t27.5 -15.5q10 0 29.5 5.5t33.5 11.5v-128q-11 -5 -28 -8.5t-35 -5.5t-33.5 -3.5t-24.5 -1.5q-56 0 -87.5 15t-46.5 42t-19 66t-5 87v178h-54v130h54v65h-166v133z" />
    <glyph glyph-name="Utilde" unicode="&#x168;" horiz-adv-x="737" 
d="M15 699h318v-129h-54v-216q0 -60 6.5 -98t19.5 -59.5t31.5 -29.5t42.5 -8q23 0 41.5 6.5t32 27t20.5 59t7 103.5v212h-54v132h296v-129h-54v-243q0 -178 -73 -261t-214 -83q-152 5 -231 86.5t-79 252.5v247h-56v130zM554 805q-22 -27 -51 -41t-72 -14q-23 0 -38.5 6
t-29.5 12.5t-29 12.5t-37 6q-40 0 -70 -30l-44 100q23 29 51 44t66 15q24 0 40 -5.5t30.5 -12t29.5 -12t36 -5.5q22 0 42.5 9t30.5 20z" />
    <glyph glyph-name="utilde" unicode="&#x169;" horiz-adv-x="631" 
d="M15 500h242v-241q0 -65 11.5 -95.5t42.5 -30.5q26 0 44.5 21t18.5 55v159h-66v132h259v-367h49v-133h-189l-27 63q-8 -9 -19.5 -22.5t-28 -25.5t-39.5 -20.5t-55 -8.5q-57 0 -95.5 15t-62 45t-33.5 76t-10 108v138h-42v132zM501 606q-22 -27 -51 -41t-72 -14
q-23 0 -38.5 6t-29.5 12.5t-29 12.5t-37 6q-40 0 -70 -30l-44 100q23 29 51 44t66 15q24 0 40 -5.5t30.5 -12t29.5 -12t36 -5.5q22 0 42.5 9t30.5 20z" />
    <glyph glyph-name="Umacron" unicode="&#x16a;" horiz-adv-x="737" 
d="M15 699h318v-129h-54v-216q0 -60 6.5 -98t19.5 -59.5t31.5 -29.5t42.5 -8q23 0 41.5 6.5t32 27t20.5 59t7 103.5v212h-54v132h296v-129h-54v-243q0 -178 -73 -261t-214 -83q-152 5 -231 86.5t-79 252.5v247h-56v130zM89 897h558v-133h-558v133z" />
    <glyph glyph-name="umacron" unicode="&#x16b;" horiz-adv-x="631" 
d="M15 500h242v-241q0 -65 11.5 -95.5t42.5 -30.5q26 0 44.5 21t18.5 55v159h-66v132h259v-367h49v-133h-189l-27 63q-8 -9 -19.5 -22.5t-28 -25.5t-39.5 -20.5t-55 -8.5q-57 0 -95.5 15t-62 45t-33.5 76t-10 108v138h-42v132zM36 698h558v-133h-558v133z" />
    <glyph glyph-name="Ubreve" unicode="&#x16c;" horiz-adv-x="737" 
d="M15 699h318v-129h-54v-216q0 -60 6.5 -98t19.5 -59.5t31.5 -29.5t42.5 -8q23 0 41.5 6.5t32 27t20.5 59t7 103.5v212h-54v132h296v-129h-54v-243q0 -178 -73 -261t-214 -83q-152 5 -231 86.5t-79 252.5v247h-56v130zM574 942q-5 -40 -22.5 -71t-44.5 -52t-62.5 -32
t-74.5 -11q-36 0 -71 10t-63 30.5t-47.5 51.5t-25.5 72h155q5 -32 19 -50t33 -18q20 0 32 19.5t17 49.5z" />
    <glyph glyph-name="ubreve" unicode="&#x16d;" horiz-adv-x="631" 
d="M15 500h242v-241q0 -65 11.5 -95.5t42.5 -30.5q26 0 44.5 21t18.5 55v159h-66v132h259v-367h49v-133h-189l-27 63q-8 -9 -19.5 -22.5t-28 -25.5t-39.5 -20.5t-55 -8.5q-57 0 -95.5 15t-62 45t-33.5 76t-10 108v138h-42v132zM521 743q-5 -40 -22.5 -71t-44.5 -52
t-62.5 -32t-74.5 -11q-36 0 -71 10t-63 30.5t-47.5 51.5t-25.5 72h155q5 -32 19 -50t33 -18q20 0 32 19.5t17 49.5z" />
    <glyph glyph-name="Uring" unicode="&#x16e;" horiz-adv-x="737" 
d="M15 699h318v-129h-54v-216q0 -60 6.5 -98t19.5 -59.5t31.5 -29.5t42.5 -8q23 0 41.5 6.5t32 27t20.5 59t7 103.5v212h-54v132h296v-129h-54v-243q0 -178 -73 -261t-214 -83q-152 5 -231 86.5t-79 252.5v247h-56v130zM410 848q0 18 -12 30t-27 12q-20 0 -32 -12t-12 -30
t12 -30t29 -12q19 0 30.5 12t11.5 30zM485 848q0 -22 -9.5 -41t-25.5 -33.5t-37 -23t-43 -8.5q-25 0 -46.5 8.5t-37.5 23t-25 33.5t-9 41t9.5 41t26 33.5t37.5 23t45 8.5t44.5 -8.5t36.5 -23t25 -33.5t9 -41z" />
    <glyph glyph-name="uring" unicode="&#x16f;" horiz-adv-x="631" 
d="M15 500h242v-241q0 -65 11.5 -95.5t42.5 -30.5q26 0 44.5 21t18.5 55v159h-66v132h259v-367h49v-133h-189l-27 63q-8 -9 -19.5 -22.5t-28 -25.5t-39.5 -20.5t-55 -8.5q-57 0 -95.5 15t-62 45t-33.5 76t-10 108v138h-42v132zM323 649q0 18 -12 30t-27 12q-20 0 -32 -12
t-12 -30t12 -30t29 -12q19 0 30.5 12t11.5 30zM398 649q0 -22 -9.5 -41t-25.5 -33.5t-37 -23t-43 -8.5q-25 0 -46.5 8.5t-37.5 23t-25 33.5t-9 41t9.5 41t26 33.5t37.5 23t45 8.5t44.5 -8.5t36.5 -23t25 -33.5t9 -41z" />
    <glyph glyph-name="Uhungarumlaut" unicode="&#x170;" horiz-adv-x="737" 
d="M15 699h318v-129h-54v-216q0 -60 6.5 -98t19.5 -59.5t31.5 -29.5t42.5 -8q23 0 41.5 6.5t32 27t20.5 59t7 103.5v212h-54v132h296v-129h-54v-243q0 -178 -73 -261t-214 -83q-152 5 -231 86.5t-79 252.5v247h-56v130zM442 900l-151 -142h-125l78 142h198zM684 900
l-151 -142h-125l78 142h198z" />
    <glyph glyph-name="uhungarumlaut" unicode="&#x171;" horiz-adv-x="631" 
d="M15 500h242v-241q0 -65 11.5 -95.5t42.5 -30.5q26 0 44.5 21t18.5 55v159h-66v132h259v-367h49v-133h-189l-27 63q-8 -9 -19.5 -22.5t-28 -25.5t-39.5 -20.5t-55 -8.5q-57 0 -95.5 15t-62 45t-33.5 76t-10 108v138h-42v132zM332 701l-151 -142h-125l78 142h198zM574 701
l-151 -142h-125l78 142h198z" />
    <glyph glyph-name="Uogonek" unicode="&#x172;" horiz-adv-x="737" 
d="M15 699h318v-129h-54v-216q0 -60 6.5 -98t19.5 -59.5t31.5 -29.5t42.5 -8q23 0 41.5 6.5t32 27t20.5 59t7 103.5v212h-54v132h296v-129h-54v-243q0 -149 -50.5 -230t-148.5 -104l-6 -4q-20 -11 -29.5 -30.5t-9.5 -37.5q0 -21 17 -35t35 -14q22 0 55.5 9.5t64.5 20.5v-143
q-23 -10 -57 -17.5t-81 -7.5q-34 0 -65 6.5t-55 24.5t-38 49.5t-14 82.5q0 32 7.5 55.5t18.5 37.5q-119 20 -180 100.5t-61 231.5v247h-56v130z" />
    <glyph glyph-name="uogonek" unicode="&#x173;" horiz-adv-x="631" 
d="M15 500h242v-241q0 -65 11.5 -95.5t42.5 -30.5q26 0 44.5 21t18.5 55v159h-66v132h259v-367h49v-133h-45l-19 -11q-20 -11 -29.5 -30.5t-9.5 -37.5q0 -21 17 -35t35 -14q22 0 55.5 9.5t64.5 20.5v-143q-23 -10 -57 -17.5t-81 -7.5q-34 0 -65 6.5t-55 24.5t-38 49.5
t-14 82.5q0 48 17 77.5t29 38.5l-21 50q-8 -9 -19.5 -22.5t-28 -25.5t-39.5 -20.5t-55 -8.5q-57 0 -95.5 15t-62 45t-33.5 76t-10 108v138h-42v132z" />
    <glyph glyph-name="Wcircumflex" unicode="&#x174;" horiz-adv-x="1015" 
d="M325 226q1 10 6 37t12 62t15 74t16 75l50 225h208l63 -276q6 -24 10.5 -51t8 -53t6.5 -50t5 -43h5q1 17 4.5 43t8 53.5t9 53t8.5 41.5l34 152h-55v130h286v-130h-55l-149 -569h-237l-60 238q-3 13 -7 29.5t-7 33.5t-6 33t-5 28h-4q-2 -11 -4.5 -27.5t-6 -34t-7 -33.5
t-6.5 -27l-61 -240h-232l-132 569h-56v130h330v-130h-58l26 -146q4 -18 9 -47t9.5 -58.5t8 -55t5.5 -36.5h5zM641 745l-139 70l-135 -70l-50 93l191 119l189 -119z" />
    <glyph glyph-name="wcircumflex" unicode="&#x175;" horiz-adv-x="872" 
d="M284 153q1 15 3.5 40t7 55.5t12 66t18.5 73.5l32 112h185l38 -130q9 -29 16 -62t13 -63t9.5 -54.5t4.5 -37.5h2q1 12 3.5 30.5t5.5 40.5t7.5 44.5t10.5 42.5l17 59h-41v130h244v-130h-41l-117 -370h-211l-69 226l-72 -226h-206l-113 370h-43v130h269v-130h-34l22 -73
q5 -18 9.5 -38.5t7.5 -40.5t5 -37t3 -28h2zM570 546l-139 70l-135 -70l-50 93l191 119l189 -119z" />
    <glyph glyph-name="Ycircumflex" unicode="&#x176;" horiz-adv-x="669" 
d="M373 384q1 7 5.5 18t10 23t11.5 24t10 21l55 101h-55v128h269v-128h-54l-185 -325v-116h56v-130h-320v130h57v118l-194 323h-49v128h342v-128h-52l58 -106q2 -7 6.5 -18t9.5 -23t9 -23t6 -17h4zM468 745l-139 70l-135 -70l-50 93l191 119l189 -119z" />
    <glyph glyph-name="ycircumflex" unicode="&#x177;" horiz-adv-x="580" 
d="M382 373h-46v127h254v-124h-48l-190 -462q-11 -24 -25.5 -49t-38.5 -45.5t-60.5 -33.5t-90.5 -13q-39 2 -68.5 16t-52.5 34l75 118q14 -13 31.5 -24t34.5 -11q20 0 34.5 17t21.5 37l14 42l-195 370h-41v128h308v-127h-47l65 -156zM424 546l-139 70l-135 -70l-50 93
l191 119l189 -119z" />
    <glyph glyph-name="Ydieresis" unicode="&#x178;" horiz-adv-x="669" 
d="M373 384q1 7 5.5 18t10 23t11.5 24t10 21l55 101h-55v128h269v-128h-54l-185 -325v-116h56v-130h-320v130h57v118l-194 323h-49v128h342v-128h-52l58 -106q2 -7 6.5 -18t9.5 -23t9 -23t6 -17h4zM363 845q0 17 7 35t20.5 33t34 24.5t46.5 9.5t46.5 -9.5t34.5 -24.5
t21.5 -33t7.5 -35q0 -42 -28 -71.5t-82 -29.5q-24 0 -43.5 9t-34 23.5t-22.5 32.5t-8 36zM88 845q0 17 7 35t20.5 33t34 24.5t46.5 9.5t46.5 -9.5t34.5 -24.5t21.5 -33t7.5 -35q0 -42 -28 -71.5t-82 -29.5q-24 0 -43.5 9t-34 23.5t-22.5 32.5t-8 36z" />
    <glyph glyph-name="Zacute" unicode="&#x179;" horiz-adv-x="714" 
d="M31 436v263h656v-133l-364 -434h185v128h178v-260h-661v130l364 437h-189v-131h-169zM495 900l-151 -142h-125l78 142h198z" />
    <glyph glyph-name="zacute" unicode="&#x17a;" horiz-adv-x="553" 
d="M25 300v200h495v-129l-238 -240h105v68h141v-199h-503v131l241 240h-111v-71h-130zM414 701l-151 -142h-125l78 142h198z" />
    <glyph glyph-name="Zdotaccent" unicode="&#x17b;" horiz-adv-x="714" 
d="M31 436v263h656v-133l-364 -434h185v128h178v-260h-661v130l364 437h-189v-131h-169zM248 845q0 17 7 35t20.5 33t34 24.5t46.5 9.5t46.5 -9.5t34.5 -24.5t21.5 -33t7.5 -35q0 -42 -28 -71.5t-82 -29.5q-24 0 -43.5 9t-34 23.5t-22.5 32.5t-8 36z" />
    <glyph glyph-name="zdotaccent" unicode="&#x17c;" horiz-adv-x="553" 
d="M25 300v200h495v-129l-238 -240h105v68h141v-199h-503v131l241 240h-111v-71h-130zM167 646q0 17 7 35t20.5 33t34 24.5t46.5 9.5t46.5 -9.5t34.5 -24.5t21.5 -33t7.5 -35q0 -42 -28 -71.5t-82 -29.5q-24 0 -43.5 9t-34 23.5t-22.5 32.5t-8 36z" />
    <glyph glyph-name="Zcaron" unicode="&#x17d;" horiz-adv-x="714" 
d="M233 940l139 -70l135 70l50 -93l-191 -119l-189 119zM31 436v263h656v-133l-364 -434h185v128h178v-260h-661v130l364 437h-189v-131h-169z" />
    <glyph glyph-name="zcaron" unicode="&#x17e;" horiz-adv-x="553" 
d="M143 740l139 -70l135 70l50 -93l-191 -119l-189 119zM25 300v200h495v-129l-238 -240h105v68h141v-199h-503v131l241 240h-111v-71h-130z" />
    <glyph glyph-name="longs" unicode="&#x17f;" horiz-adv-x="309" 
d="M351 628q-8 4 -21.5 7t-33.5 3q-32 0 -32 -53v-742h-198v527h-41v130h41v85q0 21 5.5 52.5t26 60.5t59.5 49.5t107 20.5q19 0 41 -2t42 -5.5t37 -8t27 -9.5z" />
    <glyph glyph-name="uni0180" unicode="&#x180;" horiz-adv-x="656" 
d="M414 556h-141v-95q8 10 22.5 18.5t32.5 15t38 10t38 3.5q58 0 101 -22t71.5 -58.5t43 -84t14.5 -97.5q-1 -58 -17.5 -105.5t-46.5 -81t-72 -52t-95 -18.5q-29 0 -49 3.5t-35 10t-26.5 14.5t-21.5 17l-15 -34h-225v130h42v426h-42v56h42v41h-42v97h242v-138h141v-56z
M414 244q0 22 -5 44.5t-14.5 39.5t-23 28t-29.5 11q-28 0 -49.5 -31t-21.5 -85q0 -28 5 -52t14.5 -42t23 -28t29.5 -10q32 0 51.5 34t19.5 91z" />
    <glyph glyph-name="uni0181" unicode="&#x181;" horiz-adv-x="867" 
d="M69 420q-13 10 -30 39t-17 78q0 51 14 82.5t38 49.5t55 24.5t65 6.5q8 0 15.5 -0.5t15.5 -0.5h353q125 0 185 -44.5t60 -126.5q0 -32 -5 -55.5t-16 -42t-30 -32.5t-47 -25q27 -8 51 -21.5t42 -34.5t28.5 -49.5t10.5 -64.5q0 -106 -63.5 -154.5t-208.5 -48.5h-380v130h58
v424q-32 8 -51 8q-18 0 -35 -14t-17 -35q0 -18 9.5 -37.5t29.5 -30.5l38 -22q1 -1 2 -1zM550 130q32 0 56.5 22.5t24.5 63.5q0 38 -21 63t-63 25h-77v-174h80zM470 567v-150h61q40 0 54 20.5t14 56.5q0 35 -18.5 54t-47.5 19h-63z" />
    <glyph glyph-name="uni0182" unicode="&#x182;" horiz-adv-x="640" 
d="M25 131h56v436h-56v132h587v-221h-173v89h-153v-155h76q54 0 101.5 -12.5t83.5 -37t57 -62t21 -86.5q0 -43 -10.5 -81.5t-40.5 -68t-84 -47t-141 -17.5h-324v131zM336 130q44 0 68.5 23t24.5 68q0 40 -27 61.5t-71 21.5h-45v-174h50z" />
    <glyph glyph-name="uni0183" unicode="&#x183;" horiz-adv-x="656" 
d="M562 620h-289v-159q8 10 22.5 18.5t32.5 15t38 10t38 3.5q58 0 101 -22t71.5 -58.5t43 -84t14.5 -97.5q-1 -58 -17.5 -105.5t-46.5 -81t-72 -52t-95 -18.5q-29 0 -49 3.5t-35 10t-26.5 14.5t-21.5 17l-15 -34h-225v130h42v489h-42v131h531v-130zM414 244q0 22 -5 44.5
t-14.5 39.5t-23 28t-29.5 11q-28 0 -49.5 -31t-21.5 -85q0 -28 5 -52t14.5 -42t23 -28t29.5 -10q32 0 51.5 34t19.5 91z" />
    <glyph glyph-name="uni0184" unicode="&#x184;" horiz-adv-x="640" 
d="M81 567h-56v132h322v-132h-61v-155h76q54 0 101.5 -12.5t83.5 -37t57 -62t21 -86.5q0 -43 -10 -84t-40 -73.5t-83.5 -52t-140.5 -19.5q-81 0 -133.5 19.5t-82.5 51t-42 71t-12 80.5v360zM429 221q0 40 -27 61.5t-71 21.5h-45v-87q0 -41 21 -63t57 -22q32 0 48.5 26
t16.5 63z" />
    <glyph glyph-name="uni0185" unicode="&#x185;" horiz-adv-x="656" 
d="M73 619h-42v131h242v-289q8 10 22.5 18.5t32.5 15t38 10t38 3.5q58 0 101 -22t71.5 -58.5t43 -84t14.5 -97.5q-1 -58 -18.5 -105.5t-53 -81t-90 -52t-130.5 -18.5q-63 0 -113 22.5t-84.5 58t-53 78t-18.5 81.5v390zM414 244q0 22 -5 44.5t-14.5 39.5t-23 28t-29.5 11
q-28 0 -49.5 -31t-21.5 -85q0 -28 5 -52t14.5 -42t23 -28t29.5 -10q32 0 51.5 34t19.5 91z" />
    <glyph glyph-name="uni0186" unicode="&#x186;" horiz-adv-x="686" 
d="M132 253q3 -4 16.5 -19.5t34.5 -33t48.5 -31.5t59.5 -14q36 0 63 15.5t45.5 41.5t28 60t9.5 71q0 41 -8.5 77t-24 63t-37.5 42.5t-49 15.5t-46.5 -10.5t-32 -28t-19.5 -40.5t-8 -47h-179v284h157l23 -56q3 4 13.5 15.5t29.5 23t46 20.5t65 9q49 0 102.5 -25t98.5 -72.5
t74 -116t29 -154.5q0 -84 -25.5 -150.5t-71.5 -113t-111.5 -71t-144.5 -24.5q-49 0 -93 11.5t-82 31t-70.5 45t-57.5 53.5z" />
    <glyph glyph-name="uni0187" unicode="&#x187;" horiz-adv-x="686" 
d="M673 556q-24 6 -41 6q-18 0 -35 -14t-17 -35q0 -18 9.5 -37.5t29.5 -30.5l38 -22q1 -1 2 -1l-170 -2q-8 6 -18.5 19.5t-18.5 34.5q-7 17 -12.5 29.5t-13.5 21t-21.5 12.5t-36.5 4q-27 0 -49 -15.5t-37.5 -42.5t-24 -63t-8.5 -77q0 -37 9.5 -71t28 -60t45.5 -41.5
t63 -15.5q31 0 59 14t49 31.5t34.5 33t16.5 19.5l117 -128q-26 -28 -58 -53.5t-70 -45t-82 -31t-93 -11.5q-80 0 -145 24.5t-111 71t-71.5 113t-25.5 150.5q0 86 29 154.5t74 116t98.5 72.5t102.5 25q35 0 61 -8t45 -18.5t30 -21.5t16 -17q23 32 61.5 43t81.5 11
q17 0 31.5 -1t28.5 -3z" />
    <glyph glyph-name="uni0188" unicode="&#x188;" horiz-adv-x="531" 
d="M520 422q-29 0 -48 -6.5t-29.5 -17t-14.5 -24.5t-4 -28q0 -15 3 -29t7 -22h-90q-3 11 -5 24t-2 27q-8 19 -17.5 26t-22.5 7q-22 0 -38.5 -11t-27.5 -29t-16.5 -41t-5.5 -47q0 -51 28 -84.5t78 -33.5q38 0 66 15.5t52 41.5l88 -102q-18 -19 -43 -37.5t-56.5 -32.5
t-68.5 -23t-77 -9q-55 0 -105 16.5t-87.5 50t-60 83.5t-22.5 117q0 66 20.5 114.5t54.5 80t78.5 46.5t92.5 15q46 0 76 -18t44 -34q24 31 62 41.5t80 10.5h11v-87z" />
    <glyph glyph-name="uni0189" unicode="&#x189;" horiz-adv-x="720" 
d="M42 418h45v149h-62v132h305q91 0 161.5 -26.5t119 -72t74 -107.5t25.5 -134q0 -172 -99 -265.5t-285 -93.5h-301v133h62v152h-45v133zM480 359q0 40 -8.5 77.5t-26.5 66.5t-46.5 46.5t-68.5 17.5h-38v-149h97v-133h-97v-152h38q40 0 68.5 18t46.5 48.5t26.5 71.5t8.5 88z
" />
    <glyph glyph-name="uni018A" unicode="&#x18a;" horiz-adv-x="872" 
d="M61 420q-13 10 -30 39t-17 78q0 51 14 82.5t38 49.5t55 24.5t65 6.5q8 0 15.5 -0.5t15.5 -0.5h265q91 0 161.5 -26.5t119 -72t74 -107.5t25.5 -134q0 -172 -99 -265.5t-285 -93.5h-301v133h62v425q-10 2 -19 3t-16 1q-18 0 -35 -14t-17 -35q0 -18 9.5 -37.5t29.5 -30.5
l38 -22q1 -1 2 -1zM632 359q0 40 -8.5 77.5t-26.5 66.5t-46.5 46.5t-68.5 17.5h-38v-434h38q40 0 68.5 18t46.5 48.5t26.5 71.5t8.5 88z" />
    <glyph glyph-name="uni018B" unicode="&#x18b;" horiz-adv-x="640" 
d="M364 130v174h-45q-44 0 -71 -21.5t-27 -61.5q0 -45 24.5 -68t68.5 -23h50zM625 0h-324q-87 0 -141 17.5t-84 47t-40.5 68t-10.5 81.5q0 49 21 86.5t57 62t83.5 37t101.5 12.5h76v155h-153v-89h-173v221h587v-132h-56v-436h56v-131z" />
    <glyph glyph-name="uni018C" unicode="&#x18c;" horiz-adv-x="656" 
d="M103 750h531v-131h-42v-489h42v-130h-225l-15 34q-11 -9 -22 -17t-26 -14.5t-35.5 -10t-48.5 -3.5q-53 0 -95 18.5t-72 52t-46.5 81t-17.5 105.5q0 50 14.5 97.5t43 84t71.5 58.5t101 22q18 0 38 -3.5t38 -10t32.5 -15t22.5 -18.5v159h-289v130zM251 244q0 -57 19.5 -91
t51.5 -34q16 0 29.5 10t23 28t14.5 42t5 52q0 54 -21.5 85t-49.5 31q-17 0 -30 -11t-22.5 -28t-14.5 -39.5t-5 -44.5z" />
    <glyph glyph-name="uni018D" unicode="&#x18d;" horiz-adv-x="574" 
d="M11 252q0 63 23.5 111.5t62 81.5t88 50t100.5 17q59 0 110 -18.5t88.5 -53t58.5 -84t21 -112.5q0 -92 -45.5 -152.5t-117.5 -86.5l128 -129v-131h-503v199h141v-68h105l-184 185q-35 33 -55.5 80.5t-20.5 110.5zM290 115q16 0 28.5 10t21.5 28t13.5 42.5t4.5 52.5
t-5 52.5t-14 42.5t-22.5 28.5t-31.5 10.5q-15 0 -27.5 -10t-21.5 -28t-14.5 -42t-5.5 -51q0 -62 21 -99t53 -37z" />
    <glyph glyph-name="uni018E" unicode="&#x18e;" horiz-adv-x="653" 
d="M628 567h-63v-434h63v-133h-603v226h173v-93h160v163h-190v133h190v138h-160v-89h-173v221h603v-132z" />
    <glyph glyph-name="uni018F" unicode="&#x18f;" 
d="M490 391q-3 33 -14 61.5t-29.5 49.5t-44 33t-57.5 12t-59.5 -14t-48.5 -31.5t-34.5 -33t-16.5 -19.5l-117 128q25 28 57.5 53.5t70.5 45t82 31t93 11.5q82 0 147.5 -25.5t111 -73t70 -116t24.5 -154.5q0 -81 -25.5 -148t-72 -115.5t-111 -75t-142.5 -26.5
q-92 0 -159.5 26.5t-112 75t-66 117.5t-21.5 153v16t1 16zM375 138q38 0 68.5 40t41.5 109h-216q8 -66 34 -107.5t72 -41.5z" />
    <glyph glyph-name="uni0190" unicode="&#x190;" horiz-adv-x="667" 
d="M357 -13q-63 0 -124 13.5t-109.5 41t-78.5 68.5t-30 97q0 34 12.5 60.5t30 46.5t37.5 34t35 23q-12 7 -28 18.5t-30 26.5t-24 35t-10 45q0 103 60.5 158.5t188.5 55.5q62 0 101.5 -21.5t58.5 -45.5l23 56h157v-247h-184q-4 18 -11.5 37t-20 34t-31 25t-44.5 10
q-29 0 -46.5 -6.5t-27.5 -17.5t-13.5 -25.5t-3.5 -29.5q0 -34 30 -51.5t75 -17.5h90v-119h-93q-46 0 -74 -16t-28 -57q0 -38 29.5 -57.5t81.5 -19.5q53 0 90.5 18.5t72.5 46.5l126 -106q-18 -22 -48.5 -42.5t-69 -36t-82.5 -25t-88 -9.5z" />
    <glyph glyph-name="uni0191" unicode="&#x191;" horiz-adv-x="677" 
d="M52 699h598v-221h-177v90h-153v-175h192v-133h-192v-186q0 -66 -15 -118t-48.5 -87.5t-87.5 -54t-131 -18.5q-14 0 -27.5 3t-24.5 8l-1 132q19 -9 45 -9q37 0 60 32t23 112v493h-61v132z" />
    <glyph glyph-name="florin" unicode="&#x192;" horiz-adv-x="386" 
d="M66 370h-41v130h41v85q0 21 5.5 52.5t26 60.5t59.5 49.5t107 20.5q19 0 41 -2t42 -5.5t37 -8t27 -9.5l-60 -115q-8 4 -21.5 7t-33.5 3q-32 0 -32 -53v-85h91v-130h-91v-239l-1 -61q-1 -47 -11 -96t-41.5 -90t-91.5 -67t-160 -26v134q37 0 58.5 12t32.5 30.5t13.5 40
t2.5 40.5v22v300z" />
    <glyph glyph-name="uni0193" unicode="&#x193;" horiz-adv-x="776" 
d="M490 63q-17 -28 -60 -50t-101 -22q-66 0 -123 24.5t-99.5 70.5t-67 111t-24.5 146q0 78 24.5 145.5t66.5 117t97 77.5t116 28q35 0 61 -8t45 -18.5t30 -21.5t16 -17q23 32 61.5 43t81.5 11q8 0 24 -2t33 -5t32 -6t22 -4v-143q-6 1 -19.5 5t-28.5 7.5t-28 6.5t-17 3
q-18 0 -35 -14t-17 -35q0 -18 9.5 -37.5t29.5 -30.5l38 -22q1 -1 2 -1l-170 -2q-19 13 -37 54q-6 13 -10.5 24t-10 18t-14 11t-23.5 4q-30 0 -55.5 -15.5t-43.5 -41t-28 -60t-10 -71.5q0 -38 9 -71.5t26.5 -58.5t43 -39.5t58.5 -14.5q43 0 64 14.5t32 34.5v42h-61v107h332
v-107h-40v-250h-200z" />
    <glyph glyph-name="uni0194" unicode="&#x194;" horiz-adv-x="773" 
d="M45 569h-55v130h369v-130h-55l85 -170q6 -18 11.5 -31t9.5 -23.5t6.5 -20t3.5 -19.5h5q1 10 3.5 20t7 21.5t11 25.5t14.5 33l91 164h-52v130h283v-130h-49l-225 -437q6 -12 15.5 -33.5t19.5 -48t17 -55t7 -54.5q0 -42 -10 -77.5t-29.5 -61.5t-48 -40.5t-65.5 -14.5
q-35 0 -67 13.5t-56.5 37t-39 54.5t-14.5 67q0 23 6.5 49.5t16.5 52t21.5 48t21.5 38.5zM378 -105q0 -44 34 -44q25 0 30 15t5 33q0 14 -7.5 29.5t-28.5 48.5q-13 -20 -23 -38.5t-10 -43.5z" />
    <glyph glyph-name="uni0195" unicode="&#x195;" horiz-adv-x="900" 
d="M546 274q0 -80 12 -111.5t38 -31.5q31 0 36.5 31.5t5.5 96.5v241h242v-132h-42v-138q0 -62 -19 -108t-53 -76t-81 -45t-104 -15q-39 0 -79 11t-72 34t-52 59t-20 86l1 110q-1 12 -2.5 26t-6 26t-13 19.5t-23.5 7.5q-12 0 -20.5 -8.5t-14.5 -22t-9 -30t-3 -32.5v-141h72
v-131h-314v131h42v489h-42v130h242v-312q4 7 14 20t26 26.5t38 23.5t49 10q58 0 89 -16t45 -47.5t16 -77t2 -103.5z" />
    <glyph glyph-name="uni0196" unicode="&#x196;" horiz-adv-x="415" 
d="M437 -193q-11 -5 -24.5 -8t-27.5 -3q-77 0 -131 18.5t-87.5 54t-48.5 87.5t-15 118v494h-83v131h376v-131h-86v-494q0 -80 22.5 -112t60.5 -32q25 0 45 9z" />
    <glyph glyph-name="uni0197" unicode="&#x197;" horiz-adv-x="375" 
d="M25 699h332v-132h-62v-162h60v-137h-60v-135h62v-133h-332v133h63v135h-67v137h67v162h-63v132z" />
    <glyph glyph-name="uni0198" unicode="&#x198;" horiz-adv-x="815" 
d="M286 392q45 0 71.5 13.5t43 35.5t25 50t17 57.5t20.5 57.5t34 50t57.5 35.5t91.5 13.5q46 0 77.5 -13.5t50.5 -31t28 -34.5t10 -24l-73 -107q-4 9 -8.5 22t-13 25t-23 20.5t-36.5 8.5q-28 0 -38 -16t-14 -41.5t-8 -57t-20 -63.5l154 -263h58v-130h-390v130h68l-63 124
q-23 -5 -48.5 -8t-56.5 -3h-14v-113h54v-130h-315v130h54v440h-54v129h342v-129h-81v-178z" />
    <glyph glyph-name="uni0199" unicode="&#x199;" horiz-adv-x="654" 
d="M356 628q-8 4 -21.5 7t-33.5 3q-32 0 -32 -53v-287l116 69h-72v132h280v-132h-77l-68 -43l135 -193h50v-131h-296v131h42l-76 108l-34 -24v-84h36v-131h-267v131h41v454q0 21 4.5 52.5t23 60.5t56.5 49.5t106 20.5q19 0 41 -2t42 -5.5t37 -8t27 -9.5z" />
    <glyph glyph-name="uni019A" unicode="&#x19a;" horiz-adv-x="332" 
d="M318 268h-60v-137h59v-131h-292v131h43v137h-43v137h43v216h-42v129h232v-345h60v-137z" />
    <glyph glyph-name="uni019B" unicode="&#x19b;" horiz-adv-x="671" 
d="M517 508l-68 -30l178 -373h55v-124h-356v127h40l-75 156l-74 -156h39v-127h-262v128h47l159 262l-85 -36l-36 83l119 51q-10 14 -22.5 22.5t-29.5 8.5q-20 0 -39.5 -11t-35.5 -24l-46 184q26 20 60 34t79 16q61 0 102.5 -13t69 -33t44.5 -44.5t30 -48.5l71 31z" />
    <glyph glyph-name="uni019C" unicode="&#x19c;" horiz-adv-x="1198" 
d="M836 699h323v-132h-62v-434h62v-133h-146l-75 81q-32 -51 -75 -74.5t-91 -23.5q-85 3 -143.5 29t-93.5 78q-26 -54 -67 -80.5t-110 -26.5q-76 2 -130 23.5t-89 63t-51.5 104.5t-16.5 148v247h-56v130h318v-129h-54v-216q0 -60 6.5 -98t19.5 -59.5t31.5 -29.5t42.5 -8
q23 0 41.5 6.5t32 27t20.5 59t7 103.5v212h-54l-1 2v130h318v-129h-54v-216q0 -60 6.5 -98t19.5 -59.5t31.5 -29.5t42.5 -8q23 0 41.5 6.5t32 27t20.5 59t7 103.5v212h-54v132z" />
    <glyph glyph-name="uni019D" unicode="&#x19d;" horiz-adv-x="816" 
d="M-80 -61q19 -9 45 -9q19 0 40 7.5t38.5 24.5t29 44.5t11.5 67.5v496h-58v129h287l246 -367v238h-69v129h301v-129h-66v-570h-215l-255 381v-307q0 -66 -15 -118t-48.5 -87.5t-87.5 -54t-131 -18.5q-14 0 -27.5 3t-24.5 8z" />
    <glyph glyph-name="uni019E" unicode="&#x19e;" horiz-adv-x="647" 
d="M333 0h-308v131h42v239h-42v130h213l23 -62q26 35 60.5 57.5t82.5 22.5q58 0 93.5 -19.5t55 -51t26 -71t6.5 -78.5v-417h47v-131h-252v523q0 13 -0.5 29t-5.5 30t-16.5 24t-33.5 10q-19 0 -31.5 -8.5t-19.5 -22t-9.5 -30t-2.5 -32.5v-142h72v-131z" />
    <glyph glyph-name="uni019F" unicode="&#x19f;" 
d="M373 -18q-78 0 -144 23t-113.5 69t-74 115.5t-26.5 163.5q0 81 25.5 148t72 115.5t111 75t142.5 26.5q92 0 159.5 -26.5t112 -75t66 -117.5t21.5 -153q0 -85 -23 -152.5t-68 -114.5t-110.5 -72t-150.5 -25zM364 564q-41 0 -67.5 -47t-33.5 -123h210q-3 37 -11 68
t-21.5 53.5t-32.5 35.5t-44 13zM373 139q41 0 67 43t33 117h-208q8 -75 37 -117.5t71 -42.5z" />
    <glyph glyph-name="Ohorn" unicode="&#x1a0;" 
d="M373 -18q-78 0 -144 23t-113.5 69t-74 115.5t-26.5 163.5q0 81 25.5 148t72 115.5t111 75t142.5 26.5q122 0 200.5 -46t118.5 -127q12 5 20.5 19.5t8.5 27.5q0 17 -10.5 37.5t-24.5 37.5l95 46q49 -60 49 -123q0 -30 -9 -56t-23.5 -46t-33.5 -34t-39 -20q3 -21 5 -43
t2 -45q0 -85 -23 -152.5t-68 -114.5t-110.5 -72t-150.5 -25zM373 139q24 0 42.5 15t32 42t20.5 65t7 85q0 46 -6.5 85.5t-20 69t-34.5 46.5t-50 17q-23 0 -41.5 -15.5t-32 -43.5t-21 -67t-7.5 -85q0 -49 8.5 -88.5t23 -67.5t35 -43t44.5 -15z" />
    <glyph glyph-name="ohorn" unicode="&#x1a1;" horiz-adv-x="690" 
d="M290 -13q-54 0 -104.5 16.5t-89.5 49.5t-62 83t-23 116q0 63 23.5 111.5t62 81.5t88 50t100.5 17q91 -2 160 -43t98 -118q17 2 27 17.5t10 31.5q0 17 -10.5 37.5t-24.5 37.5l95 46q49 -60 49 -123q0 -34 -11 -62t-28.5 -49t-40 -33.5t-46.5 -15.5q-1 -60 -23 -106.5
t-59 -79t-86 -49t-105 -16.5zM290 115q16 0 28.5 10t21.5 28t13.5 42.5t4.5 52.5t-5 52.5t-14 42.5t-22.5 28.5t-31.5 10.5q-15 0 -27.5 -10t-21.5 -28t-14.5 -42t-5.5 -51q0 -62 21 -99t53 -37z" />
    <glyph glyph-name="uni01A2" unicode="&#x1a2;" horiz-adv-x="1116" 
d="M373 -18q-78 0 -144 23t-113.5 69t-74 115.5t-26.5 163.5q0 81 25.5 148t72 115.5t111 75t142.5 26.5q60 0 109.5 -11.5t89.5 -33.5q32 20 69.5 32.5t82.5 12.5q76 -2 134 -20.5t97 -57t59 -98.5t20 -145v-284h56v-130h-318v129h54v253q0 90 -22 133.5t-70 43.5
q-19 0 -37 -9q35 -81 35 -187q0 -85 -23 -152.5t-68 -114.5t-110.5 -72t-150.5 -25zM373 139q24 0 42.5 15t32 42t20.5 65t7 85q0 46 -6.5 85.5t-20 69t-34.5 46.5t-50 17q-23 0 -41.5 -15.5t-32 -43.5t-21 -67t-7.5 -85q0 -49 8.5 -88.5t23 -67.5t35 -43t44.5 -15z" />
    <glyph glyph-name="uni01A3" unicode="&#x1a3;" horiz-adv-x="848" 
d="M290 -13q-54 0 -104.5 16.5t-89.5 49.5t-62 83t-23 116q0 63 23.5 111.5t62 81.5t88 50t100.5 17q85 0 151 -37q21 11 62.5 24t114.5 13q67 0 106.5 -20.5t60 -49.5t26 -60.5t5.5 -52.5v-447h50v-131h-308v131h60v447q0 53 -32 53q-17 0 -28.5 -2t-19.5 -5
q14 -28 22 -60.5t8 -70.5q0 -62 -21.5 -109.5t-58.5 -80.5t-86.5 -50t-106.5 -17zM290 115q16 0 28.5 10t21.5 28t13.5 42.5t4.5 52.5t-5 52.5t-14 42.5t-22.5 28.5t-31.5 10.5q-15 0 -27.5 -10t-21.5 -28t-14.5 -42t-5.5 -51q0 -62 21 -99t53 -37z" />
    <glyph glyph-name="uni01A4" unicode="&#x1a4;" horiz-adv-x="790" 
d="M55 420q-13 10 -30 39t-17 78q0 51 14 82.5t38 49.5t55 24.5t65 6.5q8 0 15.5 -0.5t15.5 -0.5h288q87 0 141 -17.5t84 -47t40.5 -68t10.5 -81.5q0 -50 -21 -87t-57 -61.5t-83.5 -37t-101.5 -12.5h-76v-155h61v-132h-322v132h56v426q-10 2 -18 3t-15 1q-18 0 -35 -14
t-17 -35q0 -18 9.5 -37.5t29.5 -30.5l38 -22q1 -1 2 -1zM436 569v-174h45q44 0 71 21.5t27 61.5q0 45 -24.5 68t-68.5 23h-50z" />
    <glyph glyph-name="uni01A5" unicode="&#x1a5;" horiz-adv-x="638" 
d="M606 684q-42 -39 -63.5 -81t-21.5 -103v-14t1 -15q53 -35 79.5 -94.5t26.5 -130.5q0 -60 -17.5 -107.5t-48 -80.5t-72.5 -51t-90 -18q-31 0 -54.5 5t-39 12t-24.5 13.5t-12 8.5v-101h54v-131h-299v131h42v440h-42v133h229l17 -35q11 8 34.5 21.5t56.5 18.5v2
q0 63 38.5 119.5t104.5 101.5zM413 244q0 22 -5 44.5t-14.5 39.5t-23 28t-29.5 11q-28 0 -49.5 -31t-21.5 -85q0 -28 5 -52t14.5 -42t23 -28t29.5 -10q32 0 51.5 34t19.5 91z" />
    <glyph glyph-name="uni01A6" unicode="&#x1a6;" horiz-adv-x="666" 
d="M659 -119h32v-130h-192l-129 443h-80v-62h61v-132h-322v132h56v436h-56v132h261v-74h63q87 0 141 -19.5t84 -51.5t40.5 -73t10.5 -84q0 -49 -24 -87.5t-62 -64.5zM290 495v-174h45q44 0 71 21.5t27 61.5q0 45 -24.5 68t-68.5 23h-50z" />
    <glyph glyph-name="uni01A7" unicode="&#x1a7;" horiz-adv-x="710" 
d="M510 0l-11 77q-14 -17 -34.5 -33.5t-46.5 -29.5t-58 -21t-70 -8q-45 0 -92 11t-85.5 36.5t-63 65.5t-24.5 99t29.5 98t73.5 65t95 43.5t95 32.5t73.5 32t29.5 43q0 13 -6.5 23t-17 16.5t-22.5 10t-23 3.5q-26 0 -49.5 -7.5t-41 -22.5t-27.5 -36.5t-10 -49.5h-181v251h172
l10 -84q15 28 37.5 47.5t50.5 31.5t58.5 17.5t62.5 5.5q37 0 78.5 -13t77 -39t59 -67t23.5 -96q0 -64 -28.5 -105.5t-71 -68.5t-92.5 -42.5t-92.5 -27.5t-71 -24.5t-28.5 -31.5q0 -16 8.5 -25.5t21 -15t27.5 -7.5t28 -2q16 0 37.5 4t41 15t33.5 30.5t14 50.5h186v-252h-175z
" />
    <glyph glyph-name="uni01A8" unicode="&#x1a8;" horiz-adv-x="508" 
d="M363 0l-9 61q-18 -29 -58.5 -51t-94.5 -22q-36 0 -70 10t-59.5 29.5t-41 47.5t-15.5 63q0 46 21 75.5t52.5 48.5t68.5 30.5t68.5 21t52.5 19.5t21 27q0 19 -11.5 27.5t-27.5 8.5q-19 0 -37 -6t-32.5 -16.5t-23.5 -24t-9 -29.5h-130v180h123l8 -66q16 32 57 55t92 23
q27 0 57.5 -8.5t57 -26t44 -45t17.5 -65.5q0 -49 -20.5 -80.5t-52 -51t-67.5 -30.5t-67.5 -19t-52 -16.5t-20.5 -22.5q0 -21 14.5 -27.5t29.5 -6.5q11 0 29 3t35 10.5t29.5 20.5t12.5 33h134v-180h-125z" />
    <glyph glyph-name="uni01A9" unicode="&#x1a9;" horiz-adv-x="714" 
d="M508 312l-259 -180h259v108h178v-240h-661v130l283 203l-277 233v133h656v-232h-170v100h-188l179 -153v-102z" />
    <glyph glyph-name="uni01AA" unicode="&#x1aa;" horiz-adv-x="498" 
d="M416 70v-22q0 -19 2.5 -40.5t13 -40t32 -30.5t59.5 -12v-134q-101 0 -160.5 26t-91 67t-41.5 90t-11 96l-1 61v295q-18 -3 -37 -3q-50 0 -86.5 13t-60.5 34.5t-36 49.5t-12 58q0 34 15 68t44.5 61t72.5 44t100 17q67 0 106.5 -20.5t60 -49.5t26 -60.5t5.5 -52.5v-515z
M218 585q0 53 -32 53q-33 0 -47 -15.5t-14 -35.5q0 -12 4.5 -24t12 -22t17.5 -16t22 -6q23 0 37 27v39z" />
    <glyph glyph-name="uni01AB" unicode="&#x1ab;" horiz-adv-x="363" 
d="M111 -252q19 24 34 47.5t25.5 50t15.5 57t5 66.5v15q-43 5 -67 21.5t-36 43.5t-15 63t-4 80v178h-54v130h54v92l184 59v-151h95v-130h-95v-178q0 -7 -0.5 -14t-0.5 -15q0 -20 5.5 -35.5t27.5 -15.5q10 0 29.5 5.5t33.5 11.5v-128q-1 -39 -11.5 -81.5t-28.5 -83t-43.5 -77
t-57.5 -64.5z" />
    <glyph glyph-name="uni01AC" unicode="&#x1ac;" horiz-adv-x="701" 
d="M50 400q-11 21 -24 53.5t-13 81.5q0 50 14 82t37.5 50t54.5 25t65 7h502v-260h-147v128h-84v-434h83v-133h-372v133h82v434h-49q-20 -2 -29.5 -18t-9.5 -38q0 -9 1 -20.5t5.5 -26t14 -30.5t26.5 -34h-157z" />
    <glyph glyph-name="uni01AD" unicode="&#x1ad;" horiz-adv-x="363" 
d="M253 370v-208q0 -20 5 -35t27 -15q10 0 29.5 5.5t33.5 11.5v-128q-11 -5 -28 -8.5t-35 -5.5t-33.5 -3.5t-24.5 -1.5q-56 0 -87.5 15t-46.5 42t-19 66t-5 87v178h-54v130h54v38q1 48 5 87t19 66t46.5 42t87.5 15q9 0 24.5 -1.5t33.5 -3.5t35 -6t28 -8v-128
q-14 6 -33.5 11.5t-29.5 5.5q-20 0 -25.5 -12t-6.5 -29v-77h95v-130h-95z" />
    <glyph glyph-name="uni01AE" unicode="&#x1ae;" horiz-adv-x="701" 
d="M582 -193q-11 -5 -24.5 -8t-27.5 -3q-77 0 -131 18.5t-87.5 54t-48.5 87.5t-15 118v493h-86v-128h-147v260h671v-260h-147v128h-84v-493q0 -80 22.5 -112t60.5 -32q25 0 45 9z" />
    <glyph glyph-name="Uhorn" unicode="&#x1af;" horiz-adv-x="896" 
d="M15 699h318v-129h-54v-216q0 -60 6.5 -98t19.5 -59.5t31.5 -29.5t42.5 -8q23 0 41.5 6.5t32 27t20.5 59t7 103.5v212h-54v132h281l-3 -129q8 -14 16 -22t22 -8q18 0 29 16t11 33t-10.5 37.5t-24.5 37.5l95 46q49 -60 49 -123q0 -37 -12 -67t-32.5 -51t-46 -32t-52.5 -11
q-18 0 -42 5.5t-38 13.5v-118q0 -178 -73 -261t-214 -83q-152 5 -231 86.5t-79 252.5v247h-56v130z" />
    <glyph glyph-name="uhorn" unicode="&#x1b0;" horiz-adv-x="756" 
d="M15 500h242v-241q0 -65 11.5 -95.5t42.5 -30.5q26 0 44.5 21t18.5 55v159h-66v132h259v-132q6 -8 13 -12.5t17 -4.5q18 0 29 16t11 33t-10.5 37.5t-24.5 37.5l95 46q49 -60 49 -123q0 -38 -12.5 -67.5t-32.5 -50.5t-45.5 -32t-52.5 -11q-19 0 -36 4v-108h49v-133h-189
l-27 63q-8 -9 -19.5 -22.5t-28 -25.5t-39.5 -20.5t-55 -8.5q-57 0 -95.5 15t-62 45t-33.5 76t-10 108v138h-42v132z" />
    <glyph glyph-name="uni01B1" unicode="&#x1b1;" 
d="M719 281q0 -85 -22.5 -142t-66 -92t-108 -50t-149.5 -15q-75 0 -140 19t-113 57.5t-76 95.5t-28 132q0 39 16 76.5t35 71t35 61.5t16 46q0 15 -13.5 23t-45.5 8q-26 0 -45 -9l1 132q6 2 19.5 4t28.5 3.5t29.5 2.5t21.5 1q56 0 92.5 -6t57.5 -17t29.5 -27.5t8.5 -38.5
q0 -23 -6.5 -50.5t-14 -60.5t-13.5 -71.5t-6 -81.5q0 -49 8.5 -88.5t23 -67.5t35 -43t44.5 -15t42.5 15t32 42t20.5 65t7 85q0 40 -6.5 77t-14 70t-14 62t-6.5 53q0 23 8.5 41.5t30 31t59 19t94.5 6.5q7 0 21.5 -1t29.5 -2.5t28.5 -3.5t19.5 -4l1 -132q-20 9 -45 9
q-30 0 -42 -9t-12 -24q0 -20 14.5 -49t31.5 -63.5t31.5 -72t14.5 -73.5z" />
    <glyph glyph-name="uni01B2" unicode="&#x1b2;" horiz-adv-x="761" 
d="M440 200q1 10 7 26t14.5 34.5t17.5 38t17 38.5l49 125q8 23 14 42t6 33q0 17 -11.5 26t-42.5 9q-26 0 -45 -9l1 132q6 2 19.5 4t28.5 3.5t29.5 2.5t21.5 1q51 0 84.5 -5.5t54 -16t29 -25.5t8.5 -34q0 -33 -18.5 -77.5t-38.5 -97.5l-191 -450h-184l-265 569h-55v130h369
v-130h-55l100 -248q12 -37 20.5 -68.5t10.5 -52.5h5z" />
    <glyph glyph-name="uni01B3" unicode="&#x1b3;" horiz-adv-x="669" 
d="M373 384q1 7 5.5 18t10 23t11.5 24t10 21l55 101h-55v128h269v-128h-54l-185 -325v-116h56v-130h-320v130h57v118l-142 273q-23 34 -47.5 46.5t-53.5 12.5q-26 0 -45 -9l1 132q6 2 19.5 4t28.5 3.5t29.5 2.5t21.5 1q54 0 89.5 -3t58.5 -10t36 -18t21.5 -27t16.5 -37
t21 -48l50 -106q2 -7 6.5 -18t9.5 -23t9 -23t6 -17h4z" />
    <glyph glyph-name="uni01B4" unicode="&#x1b4;" horiz-adv-x="622" 
d="M357 -74l-5 -12q-11 -24 -25.5 -49t-38.5 -45.5t-60.5 -33.5t-90.5 -13q-39 2 -68.5 16t-52.5 34l75 118q14 -13 31.5 -24t34.5 -11q20 0 34.5 17t21.5 37l14 42l-195 370h-41v128h308v-127h-47l65 -156l57 141q11 24 25.5 49t38.5 45.5t60.5 33.5t90.5 13
q39 -2 68.5 -16t52.5 -34l-75 -118q-14 13 -27.5 24t-30.5 11q-20 0 -34.5 -17t-21.5 -37z" />
    <glyph glyph-name="uni01B5" unicode="&#x1b5;" horiz-adv-x="714" 
d="M634 289h-180l-131 -157h185v79h178v-211h-661v130l132 159h-78v138h193l117 140h-189v-68h-169v200h656v-133l-117 -139h64v-138z" />
    <glyph glyph-name="uni01B6" unicode="&#x1b6;" horiz-adv-x="553" 
d="M483 199h-134l-67 -68h105v39h141v-170h-503v131l68 68h-26v101h128l71 71h-111v-37h-130v166h495v-129l-71 -71h34v-101z" />
    <glyph glyph-name="uni01B7" unicode="&#x1b7;" horiz-adv-x="672" 
d="M488 428q27 -10 55 -26t50.5 -39t37 -52t14.5 -64q0 -56 -30 -103.5t-78.5 -82t-109.5 -54.5t-124 -20q-44 0 -88 9.5t-82.5 25t-69 36t-48.5 42.5l126 106q35 -28 72.5 -46.5t90.5 -18.5q26 0 46.5 8.5t35 22.5t22 32t7.5 37q0 41 -28 65.5t-74 24.5h-49v119h2l143 117
h-209v-131h-169v263h609v-133l-150 -138h-2z" />
    <glyph glyph-name="uni01B8" unicode="&#x1b8;" horiz-adv-x="672" 
d="M170 428l-150 138v133h609v-263h-169v131h-209l143 -117h2v-119h-49q-46 0 -74 -24.5t-28 -65.5q0 -19 7.5 -37t22 -32t35 -22.5t46.5 -8.5q53 0 90.5 18.5t72.5 46.5l126 -106q-18 -22 -48.5 -42.5t-69 -36t-82.5 -25t-88 -9.5q-63 0 -124 20t-109.5 54.5t-78.5 82
t-30 103.5q0 35 14.5 64t37 52t50.5 39t55 26h-2z" />
    <glyph glyph-name="uni01B9" unicode="&#x1b9;" horiz-adv-x="553" 
d="M20 371v129h512v-200h-130v71h-191l146 -193v-65h-40q-19 0 -40 -5.5t-39 -19.5t-29.5 -37t-11.5 -59q0 -47 24.5 -76t69.5 -29q48 0 79.5 11t57.5 28l124 -80q-20 -19 -50 -36.5t-64.5 -31t-72 -21.5t-73.5 -8q-53 0 -104.5 13.5t-92 41t-65.5 70t-25 100.5
q0 57 13.5 97t35 66t47.5 41t51 22z" />
    <glyph glyph-name="uni01BA" unicode="&#x1ba;" horiz-adv-x="553" 
d="M405 200q25 -7 51 -16.5t47.5 -28.5t35 -50.5t13.5 -82.5q0 -48 -27 -80t-69.5 -51t-96 -27t-106.5 -8q-47 0 -66.5 -11.5t-19.5 -30.5q0 -14 9 -31t25 -34h-161q-2 2 -5.5 10t-7.5 20t-7 26.5t-3 31.5q0 24 9.5 49.5t34.5 47.5t69.5 37t114.5 18q22 1 43 4t37 9t25.5 15
t9.5 23q0 24 -11.5 38t-29.5 22t-39 10.5t-40 2.5h-40v65l146 193h-191v-71h-130v200h512v-129z" />
    <glyph glyph-name="uni01BB" unicode="&#x1bb;" horiz-adv-x="590" 
d="M565 269h-191q-2 -2 -3 -2q-18 -12 -40.5 -28.5t-44 -35t-39 -37t-26.5 -33.5h176v80h168v-213h-540v145q28 45 48.5 73t43.5 51h-83v129h251q27 20 45 40t18 44q0 39 -17 58.5t-40 19.5q-25 0 -48.5 -23t-29.5 -70h-180v232h157l17 -41q32 28 66 41t66 13
q39 0 73.5 -16.5t61 -46t42 -70t15.5 -88.5q0 -56 -18 -93h52v-129z" />
    <glyph glyph-name="uni01BC" unicode="&#x1bc;" horiz-adv-x="577" 
d="M507 550h-225l-17 -97q7 5 14.5 9.5t16.5 7.5t21.5 5t30.5 2q44 0 83 -15t68 -45t46 -74.5t17 -102.5q0 -63 -26.5 -110.5t-69 -79t-96 -47.5t-107.5 -16q-38 0 -75.5 10t-71 27t-60 39t-41.5 45l109 113q29 -30 62.5 -52t77.5 -22q51 0 80.5 28t29.5 72q0 40 -20 68.5
t-63 28.5q-17 0 -27 -4t-17 -10.5t-12 -15t-13 -16.5l-128 57l34 195h-87v149h466v-149z" />
    <glyph glyph-name="uni01BD" unicode="&#x1bd;" horiz-adv-x="528" 
d="M463 377h-200q-2 -11 -4.5 -20t-4.5 -19q9 4 22 6t36 2q40 0 76 -11.5t63 -33.5t43 -54.5t16 -74.5q0 -46 -24 -80.5t-63 -58t-88 -35t-98 -11.5q-35 0 -69.5 8t-65 21.5t-56 31t-40.5 36.5l111 88q27 -22 57 -38t64 -16q39 0 62.5 16.5t23.5 42.5q0 24 -14.5 41
t-47.5 17q-14 0 -22 -2.5t-14 -7t-10.5 -10.5t-11.5 -13l-127 44l30 131h-74v123h430v-123z" />
    <glyph glyph-name="uni01BE" unicode="&#x1be;" horiz-adv-x="520" 
d="M446 519h-105v-37q0 -15 12 -31.5t29.5 -36t38 -42t38 -49.5t29.5 -58.5t12 -69.5q0 -51 -18.5 -89t-50.5 -64t-75.5 -39t-93.5 -13q-75 0 -141 34t-119 95l108 109q13 -15 28.5 -29.5t33 -26.5t35 -19t33.5 -7q13 0 26.5 2t24 7t17 14.5t6.5 23.5q0 26 -12 50.5
t-29.5 48t-38 45.5t-38 44.5t-29.5 44.5t-12 45v48h-101v108h101v73h186v-73h105v-108z" />
    <glyph glyph-name="uni01BF" unicode="&#x1bf;" horiz-adv-x="640" 
d="M349 663q57 29 98 42.5t72 13.5t51.5 -12.5t32 -34.5t16 -51.5t4.5 -63.5q0 -58 -21 -112.5t-56.5 -102t-83 -87t-100.5 -67.5l-76 -40v-16h61v-132h-322v132h56v436h-56v131h261v-68zM286 478v-184l45 24q21 11 39 29.5t30.5 41t20 47.5t7.5 48q0 37 -37 37
q-24 0 -55 -16z" />
    <glyph glyph-name="uni01C0" unicode="&#x1c0;" horiz-adv-x="259" 
d="M25 699h207v-699h-207v699z" />
    <glyph glyph-name="uni01C1" unicode="&#x1c1;" horiz-adv-x="529" 
d="M292 699h207v-699h-207v699zM25 699h207v-699h-207v699z" />
    <glyph glyph-name="uni01C2" unicode="&#x1c2;" horiz-adv-x="457" 
d="M23 305h106v88h-106v133h106v173h207v-173h99v-133h-99v-88h99v-133h-99v-172h-207v172h-106v133z" />
    <glyph glyph-name="uni01C3" unicode="&#x1c3;" horiz-adv-x="308" 
d="M28 102q0 19 7.5 38t22.5 34t36 24.5t48 9.5t48.5 -8.5t37.5 -23t24.5 -34t8.5 -40.5q0 -42 -32 -72.5t-87 -30.5q-24 0 -45 9t-36.5 23t-24 32.5t-8.5 38.5zM32 509v190h239v-190l-53 -252h-132z" />
    <glyph glyph-name="uni01C4" unicode="&#x1c4;" horiz-adv-x="1415" 
d="M25 0v133h62v434h-62v132h305q91 0 161.5 -26.5t119 -72t74 -107.5t25.5 -134q0 -172 -99 -265.5t-285 -93.5h-301zM480 359q0 40 -8.5 77.5t-26.5 66.5t-46.5 46.5t-68.5 17.5h-38v-434h38q40 0 68.5 18t46.5 48.5t26.5 71.5t8.5 88zM736 436v263h656v-133l-364 -434
h185v128h178v-260h-661v130l364 437h-189v-131h-169zM957 933l139 -70l135 70l50 -93l-191 -119l-189 119z" />
    <glyph glyph-name="uni01C5" unicode="&#x1c5;" horiz-adv-x="1273" 
d="M25 0v133h62v434h-62v132h305q91 0 161.5 -26.5t119 -72t74 -107.5t25.5 -134q0 -172 -99 -265.5t-285 -93.5h-301zM480 359q0 40 -8.5 77.5t-26.5 66.5t-46.5 46.5t-68.5 17.5h-38v-434h38q40 0 68.5 18t46.5 48.5t26.5 71.5t8.5 88zM745 300v200h495v-129l-238 -240
h105v68h141v-199h-503v131l241 240h-111v-71h-130zM861 740l139 -70l135 70l50 -93l-191 -119l-189 119z" />
    <glyph glyph-name="uni01C6" unicode="&#x1c6;" horiz-adv-x="1182" 
d="M368 620h-46v130h249v-620h48v-130h-234l-17 37q-5 -5 -15.5 -12.5t-26.5 -15t-37 -13t-47 -5.5q-53 0 -96 21.5t-73 58t-46.5 84.5t-16.5 100q0 58 19 105.5t51 80.5t74 51t88 18q53 0 82.5 -14.5t43.5 -23.5v148zM225 255q0 -23 5 -45t14.5 -39t22.5 -28t30 -11
q28 0 49.5 31t21.5 85q0 28 -5 52t-14.5 42t-23 28t-29.5 10q-32 0 -51.5 -34t-19.5 -91zM766 740l139 -70l135 70l50 -93l-191 -119l-189 119zM650 300v200h495v-129l-238 -240h105v68h141v-199h-503v131l241 240h-111v-71h-130z" />
    <glyph glyph-name="uni01C7" unicode="&#x1c7;" horiz-adv-x="891" 
d="M25 699h316v-132h-53v-434h129v127h168v-260h-560v133h55v434h-55v132zM499 -61q19 -9 45 -9q37 0 60 32t23 112v494h-86v131h376v-131h-83v-494q0 -66 -15 -118t-48.5 -87.5t-87.5 -54t-131 -18.5q-14 0 -27.5 3t-24.5 8z" />
    <glyph glyph-name="uni01C8" unicode="&#x1c8;" horiz-adv-x="853" 
d="M25 699h316v-132h-53v-434h129v127h168v-260h-560v133h55v434h-55v132zM624 370h-42v130h232v-430q0 -47 -10 -96t-42 -90t-92 -67t-160 -26v134q43 0 66.5 16t34 38.5t12 47.5t1.5 43v300zM610 646q0 17 7 35t20.5 33t34 24.5t46.5 9.5t46.5 -9.5t34.5 -24.5t21.5 -33
t7.5 -35q0 -42 -28 -71.5t-82 -29.5q-24 0 -43.5 9t-34 23.5t-22.5 32.5t-8 36z" />
    <glyph glyph-name="uni01C9" unicode="&#x1c9;" horiz-adv-x="584" 
d="M317 0h-292v131h43v490h-42v129h232v-619h59v-131zM362 370h-45v130h235v-430q0 -47 -10 -96t-42 -90t-92 -67t-160 -26v134q43 0 66.5 16t34 38.5t12 47.5t1.5 43v300zM348 646q0 17 7 35t20.5 33t34 24.5t46.5 9.5t46.5 -9.5t34.5 -24.5t21.5 -33t7.5 -35
q0 -42 -28 -71.5t-82 -29.5q-24 0 -43.5 9t-34 23.5t-22.5 32.5t-8 36z" />
    <glyph glyph-name="uni01CA" unicode="&#x1ca;" horiz-adv-x="1104" 
d="M720 -61q19 -9 45 -9q37 0 60 32t23 112v494h-86v2h-37v-570h-215l-255 381v-252h77v-129h-307v129h59v441h-58v129h287l246 -367v238h-69v129h648v-131h-83v-494q0 -66 -15 -118t-48.5 -87.5t-87.5 -54t-131 -18.5q-14 0 -27.5 3t-24.5 8z" />
    <glyph glyph-name="uni01CB" unicode="&#x1cb;" horiz-adv-x="1052" 
d="M791 570h-66v-570h-215l-255 381v-252h77v-129h-307v129h59v441h-58v129h287l246 -367v238h-69v129h301v-129zM825 370h-34l-8 130h232v-430q0 -47 -10 -96t-42 -90t-92 -67t-160 -26v134q43 0 66.5 16t34 38.5t12 47.5t1.5 43v300zM811 646q0 17 7 35t20.5 33t34 24.5
t46.5 9.5t46.5 -9.5t34.5 -24.5t21.5 -33t7.5 -35q0 -42 -28 -71.5t-82 -29.5q-24 0 -43.5 9t-34 23.5t-22.5 32.5t-8 36z" />
    <glyph glyph-name="uni01CC" unicode="&#x1cc;" horiz-adv-x="901" 
d="M333 0h-308v131h42v239h-42v130h213l23 -62q26 35 60.5 57.5t82.5 22.5q58 0 93.5 -19.5t55 -51t26 -71t6.5 -78.5v-167h47v-131h-252v273q0 13 -0.5 29t-5.5 30t-16.5 24t-33.5 10q-19 0 -31.5 -8.5t-19.5 -22t-9.5 -30t-2.5 -32.5v-142h72v-131zM672 370h-42v130h232
v-430q0 -47 -10 -96t-42 -90t-92 -67t-160 -26v134q43 0 66.5 16t34 38.5t12 47.5t1.5 43v300zM658 646q0 17 7 35t20.5 33t34 24.5t46.5 9.5t46.5 -9.5t34.5 -24.5t21.5 -33t7.5 -35q0 -42 -28 -71.5t-82 -29.5q-24 0 -43.5 9t-34 23.5t-22.5 32.5t-8 36z" />
    <glyph glyph-name="uni01CD" unicode="&#x1cd;" horiz-adv-x="823" 
d="M808 0h-401v131h95l-21 68h-205l-21 -68h78v-131h-318v131h68l135 439h-41v129h384l177 -568h70v-131zM313 319h131l-66 216zM277 939l139 -70l135 70l50 -93l-191 -119l-189 119z" />
    <glyph glyph-name="uni01CE" unicode="&#x1ce;" horiz-adv-x="600" 
d="M36 458q15 9 38 21t51.5 23.5t61 19t67.5 7.5q45 0 93 -9.5t87.5 -33t65 -63.5t25.5 -100v-195h60v-128h-214l-24 45q-14 -19 -31.5 -31.5t-36 -19.5t-36.5 -10t-31 -3q-36 0 -71 10t-63 30t-45.5 51.5t-17.5 75.5q0 42 16.5 76t45 58t66.5 37t80 13q22 0 39.5 -4.5
t30 -10.5t20 -12t9.5 -8v35q0 34 -27 45t-68 11q-45 0 -82.5 -15t-66.5 -31zM258 111q23 0 40 11t24 22v38q-1 2 -4.5 6.5t-10.5 9.5t-17.5 9t-26.5 4q-30 0 -44 -15t-14 -38q0 -21 15 -34t38 -13zM166 740l139 -70l135 70l50 -93l-191 -119l-189 119z" />
    <glyph glyph-name="uni01CF" unicode="&#x1cf;" horiz-adv-x="382" 
d="M25 699h332v-132h-62v-434h62v-133h-332v133h63v434h-63v132zM57 939l139 -70l135 70l50 -93l-191 -119l-189 119z" />
    <glyph glyph-name="uni01D0" unicode="&#x1d0;" horiz-adv-x="330" 
d="M305 0h-280v131h42v239h-42v130h232v-369h48v-131zM5 758l139 -70l135 70l50 -93l-191 -119l-189 119z" />
    <glyph glyph-name="uni01D1" unicode="&#x1d1;" 
d="M373 -18q-78 0 -144 23t-113.5 69t-74 115.5t-26.5 163.5q0 81 25.5 148t72 115.5t111 75t142.5 26.5q92 0 159.5 -26.5t112 -75t66 -117.5t21.5 -153q0 -85 -23 -152.5t-68 -114.5t-110.5 -72t-150.5 -25zM373 139q24 0 42.5 15t32 42t20.5 65t7 85q0 46 -6.5 85.5
t-20 69t-34.5 46.5t-50 17q-23 0 -41.5 -15.5t-32 -43.5t-21 -67t-7.5 -85q0 -49 8.5 -88.5t23 -67.5t35 -43t44.5 -15zM236 939l139 -70l135 70l50 -93l-191 -119l-189 119z" />
    <glyph glyph-name="uni01D2" unicode="&#x1d2;" horiz-adv-x="574" 
d="M290 -13q-54 0 -104.5 16.5t-89.5 49.5t-62 83t-23 116q0 63 23.5 111.5t62 81.5t88 50t100.5 17q59 0 110 -18.5t88.5 -53t58.5 -84t21 -112.5q0 -62 -21.5 -109.5t-58.5 -80.5t-86.5 -50t-106.5 -17zM290 115q16 0 28.5 10t21.5 28t13.5 42.5t4.5 52.5t-5 52.5
t-14 42.5t-22.5 28.5t-31.5 10.5q-15 0 -27.5 -10t-21.5 -28t-14.5 -42t-5.5 -51q0 -62 21 -99t53 -37zM153 740l139 -70l135 70l50 -93l-191 -119l-189 119z" />
    <glyph glyph-name="uni01D3" unicode="&#x1d3;" horiz-adv-x="737" 
d="M15 699h318v-129h-54v-216q0 -60 6.5 -98t19.5 -59.5t31.5 -29.5t42.5 -8q23 0 41.5 6.5t32 27t20.5 59t7 103.5v212h-54v132h296v-129h-54v-243q0 -178 -73 -261t-214 -83q-152 5 -231 86.5t-79 252.5v247h-56v130zM234 939l139 -70l135 70l50 -93l-191 -119l-189 119z
" />
    <glyph glyph-name="uni01D4" unicode="&#x1d4;" horiz-adv-x="631" 
d="M15 500h242v-241q0 -65 11.5 -95.5t42.5 -30.5q26 0 44.5 21t18.5 55v159h-66v132h259v-367h49v-133h-189l-27 63q-8 -9 -19.5 -22.5t-28 -25.5t-39.5 -20.5t-55 -8.5q-57 0 -95.5 15t-62 45t-33.5 76t-10 108v138h-42v132zM181 740l139 -70l135 70l50 -93l-191 -119
l-189 119z" />
    <glyph glyph-name="uni01D5" unicode="&#x1d5;" horiz-adv-x="737" 
d="M15 699h318v-129h-54v-216q0 -60 6.5 -98t19.5 -59.5t31.5 -29.5t42.5 -8q23 0 41.5 6.5t32 27t20.5 59t7 103.5v212h-54v132h296v-129h-54v-243q0 -178 -73 -261t-214 -83q-152 5 -231 86.5t-79 252.5v247h-56v130zM402 827q0 14 5.5 29t17 27t28 20t37.5 8t37.5 -8
t28.5 -20t18 -27t6 -29q0 -35 -23 -59.5t-67 -24.5q-19 0 -35 7.5t-28 19.5t-18.5 27t-6.5 30zM177 827q0 14 5.5 29t17 27t28 20t37.5 8t38 -8t28.5 -20t17.5 -27t6 -29q0 -35 -23 -59.5t-67 -24.5q-19 0 -35 7.5t-28 19.5t-18.5 27t-6.5 30zM94 1009h560v-74h-560v74z" />
    <glyph glyph-name="uni01D6" unicode="&#x1d6;" horiz-adv-x="631" 
d="M15 500h242v-241q0 -65 11.5 -95.5t42.5 -30.5q26 0 44.5 21t18.5 55v159h-66v132h259v-367h49v-133h-189l-27 63q-8 -9 -19.5 -22.5t-28 -25.5t-39.5 -20.5t-55 -8.5q-57 0 -95.5 15t-62 45t-33.5 76t-10 108v138h-42v132zM319 620q0 14 5.5 29t17 27t28 20t37.5 8
t37.5 -8t28.5 -20t18 -27t6 -29q0 -35 -23 -59.5t-67 -24.5q-19 0 -35 7.5t-28 19.5t-18.5 27t-6.5 30zM94 620q0 14 5.5 29t17 27t28 20t37.5 8t38 -8t28.5 -20t17.5 -27t6 -29q0 -35 -23 -59.5t-67 -24.5q-19 0 -35 7.5t-28 19.5t-18.5 27t-6.5 30zM11 805h560v-74h-560
v74z" />
    <glyph glyph-name="uni01D7" unicode="&#x1d7;" horiz-adv-x="737" 
d="M15 699h318v-129h-54v-216q0 -60 6.5 -98t19.5 -59.5t31.5 -29.5t42.5 -8q23 0 41.5 6.5t32 27t20.5 59t7 103.5v212h-54v132h296v-129h-54v-243q0 -178 -73 -261t-214 -83q-152 5 -231 86.5t-79 252.5v247h-56v130zM481 845q0 17 7 35t20.5 33t34 24.5t46.5 9.5
t46.5 -9.5t34.5 -24.5t21.5 -33t7.5 -35q0 -42 -28 -71.5t-82 -29.5q-24 0 -43.5 9t-34 23.5t-22.5 32.5t-8 36zM39 845q0 17 7 35t20.5 33t34 24.5t46.5 9.5t46.5 -9.5t34.5 -24.5t21.5 -33t7.5 -35q0 -42 -28 -71.5t-82 -29.5q-24 0 -43.5 9t-34 23.5t-22.5 32.5t-8 36z
M543 968l-151 -142h-125l78 142h198z" />
    <glyph glyph-name="uni01D8" unicode="&#x1d8;" horiz-adv-x="631" 
d="M15 500h242v-241q0 -65 11.5 -95.5t42.5 -30.5q26 0 44.5 21t18.5 55v159h-66v132h259v-367h49v-133h-189l-27 63q-8 -9 -19.5 -22.5t-28 -25.5t-39.5 -20.5t-55 -8.5q-57 0 -95.5 15t-62 45t-33.5 76t-10 108v138h-42v132zM403 646q0 17 7 35t20.5 33t34 24.5t46.5 9.5
t46.5 -9.5t34.5 -24.5t21.5 -33t7.5 -35q0 -42 -28 -71.5t-82 -29.5q-24 0 -43.5 9t-34 23.5t-22.5 32.5t-8 36zM-39 646q0 17 7 35t20.5 33t34 24.5t46.5 9.5t46.5 -9.5t34.5 -24.5t21.5 -33t7.5 -35q0 -42 -28 -71.5t-82 -29.5q-24 0 -43.5 9t-34 23.5t-22.5 32.5t-8 36z
M465 769l-151 -142h-125l78 142h198z" />
    <glyph glyph-name="uni01D9" unicode="&#x1d9;" horiz-adv-x="737" 
d="M15 699h318v-129h-54v-216q0 -60 6.5 -98t19.5 -59.5t31.5 -29.5t42.5 -8q23 0 41.5 6.5t32 27t20.5 59t7 103.5v212h-54v132h296v-129h-54v-243q0 -178 -73 -261t-214 -83q-152 5 -231 86.5t-79 252.5v247h-56v130zM485 825q0 14 5.5 28.5t17 26.5t28 19.5t38.5 7.5
q21 0 37.5 -7.5t28.5 -19.5t18 -26.5t6 -28.5q0 -33 -23 -57t-67 -24q-20 0 -36 7t-28 18.5t-18.5 26t-6.5 29.5zM90 825q0 14 5.5 28.5t17 26.5t28 19.5t38.5 7.5q21 0 38 -7.5t28.5 -19.5t17.5 -26.5t6 -28.5q0 -33 -23 -57t-67 -24q-20 0 -36 7t-28 18.5t-18.5 26
t-6.5 29.5zM264 986l115 -56l111 56l41 -75l-157 -95l-156 95z" />
    <glyph glyph-name="uni01DA" unicode="&#x1da;" horiz-adv-x="631" 
d="M15 500h242v-241q0 -65 11.5 -95.5t42.5 -30.5q26 0 44.5 21t18.5 55v159h-66v132h259v-367h49v-133h-189l-27 63q-8 -9 -19.5 -22.5t-28 -25.5t-39.5 -20.5t-55 -8.5q-57 0 -95.5 15t-62 45t-33.5 76t-10 108v138h-42v132zM399 616q0 14 5.5 28.5t17 26.5t28 19.5
t38.5 7.5q21 0 37.5 -7.5t28.5 -19.5t18 -26.5t6 -28.5q0 -33 -23 -57t-67 -24q-20 0 -36 7t-28 18.5t-18.5 26t-6.5 29.5zM4 616q0 14 5.5 28.5t17 26.5t28 19.5t38.5 7.5q21 0 38 -7.5t28.5 -19.5t17.5 -26.5t6 -28.5q0 -33 -23 -57t-67 -24q-20 0 -36 7t-28 18.5
t-18.5 26t-6.5 29.5zM178 777l115 -56l111 56l41 -75l-157 -95l-156 95z" />
    <glyph glyph-name="uni01DB" unicode="&#x1db;" horiz-adv-x="737" 
d="M15 699h318v-129h-54v-216q0 -60 6.5 -98t19.5 -59.5t31.5 -29.5t42.5 -8q23 0 41.5 6.5t32 27t20.5 59t7 103.5v212h-54v132h296v-129h-54v-243q0 -178 -73 -261t-214 -83q-152 5 -231 86.5t-79 252.5v247h-56v130zM504 845q0 17 7 35t20.5 33t34 24.5t46.5 9.5
t46.5 -9.5t34.5 -24.5t21.5 -33t7.5 -35q0 -42 -28 -71.5t-82 -29.5q-24 0 -43.5 9t-34 23.5t-22.5 32.5t-8 36zM8 845q0 17 7 35t20.5 33t34 24.5t46.5 9.5t46.5 -9.5t34.5 -24.5t21.5 -33t7.5 -35q0 -42 -28 -71.5t-82 -29.5q-24 0 -43.5 9t-34 23.5t-22.5 32.5t-8 36z
M394 983l78 -142h-125l-151 142h198z" />
    <glyph glyph-name="uni01DC" unicode="&#x1dc;" horiz-adv-x="631" 
d="M15 500h242v-241q0 -65 11.5 -95.5t42.5 -30.5q26 0 44.5 21t18.5 55v159h-66v132h259v-367h49v-133h-189l-27 63q-8 -9 -19.5 -22.5t-28 -25.5t-39.5 -20.5t-55 -8.5q-57 0 -95.5 15t-62 45t-33.5 76t-10 108v138h-42v132zM394 646q0 17 7 35t20.5 33t34 24.5t46.5 9.5
t46.5 -9.5t34.5 -24.5t21.5 -33t7.5 -35q0 -42 -28 -71.5t-82 -29.5q-24 0 -43.5 9t-34 23.5t-22.5 32.5t-8 36zM-1 646q0 17 7 35t20.5 33t34 24.5t46.5 9.5t46.5 -9.5t34.5 -24.5t21.5 -33t7.5 -35q0 -42 -28 -71.5t-82 -29.5q-24 0 -43.5 9t-34 23.5t-22.5 32.5t-8 36z
M301 816l78 -142h-125l-151 142h198z" />
    <glyph glyph-name="uni01DD" unicode="&#x1dd;" horiz-adv-x="542" 
d="M5 427q56 48 118 67.5t140 19.5q46 0 93.5 -15.5t85 -48t61.5 -84t24 -123.5q0 -62 -21 -110t-57 -82t-85 -51.5t-106 -17.5q-62 0 -109.5 18t-79.5 50t-48 75.5t-16 94.5q0 20 2.5 39.5t9.5 36.5h315q-2 10 -6.5 24t-15.5 27t-30.5 22t-50.5 9q-13 0 -29 -1t-34 -6
t-37.5 -14.5t-39.5 -26.5zM252 117q23 0 37.5 9t23 21.5t12 26.5t4.5 23h-151q0 -14 3 -28.5t10.5 -26t22 -18.5t38.5 -7z" />
    <glyph glyph-name="uni01DE" unicode="&#x1de;" horiz-adv-x="823" 
d="M808 0h-401v131h95l-21 68h-205l-21 -68h78v-131h-318v131h68l135 439h-41v129h384l177 -568h70v-131zM313 319h131l-66 216zM402 816q0 14 5.5 29t17 27t28 20t37.5 8t37.5 -8t28.5 -20t18 -27t6 -29q0 -35 -23 -59.5t-67 -24.5q-19 0 -35 7.5t-28 19.5t-18.5 27
t-6.5 30zM177 816q0 14 5.5 29t17 27t28 20t37.5 8t38 -8t28.5 -20t17.5 -27t6 -29q0 -35 -23 -59.5t-67 -24.5q-19 0 -35 7.5t-28 19.5t-18.5 27t-6.5 30zM94 997h560v-74h-560v74z" />
    <glyph glyph-name="uni01DF" unicode="&#x1df;" horiz-adv-x="600" 
d="M36 458q15 9 38 21t51.5 23.5t61 19t67.5 7.5q45 0 93 -9.5t87.5 -33t65 -63.5t25.5 -100v-195h60v-128h-214l-24 45q-14 -19 -31.5 -31.5t-36 -19.5t-36.5 -10t-31 -3q-36 0 -71 10t-63 30t-45.5 51.5t-17.5 75.5q0 42 16.5 76t45 58t66.5 37t80 13q22 0 39.5 -4.5
t30 -10.5t20 -12t9.5 -8v35q0 34 -27 45t-68 11q-45 0 -82.5 -15t-66.5 -31zM258 111q23 0 40 11t24 22v38q-1 2 -4.5 6.5t-10.5 9.5t-17.5 9t-26.5 4q-30 0 -44 -15t-14 -38q0 -21 15 -34t38 -13zM319 620q0 14 5.5 29t17 27t28 20t37.5 8t37.5 -8t28.5 -20t18 -27t6 -29
q0 -35 -23 -59.5t-67 -24.5q-19 0 -35 7.5t-28 19.5t-18.5 27t-6.5 30zM94 620q0 14 5.5 29t17 27t28 20t37.5 8t38 -8t28.5 -20t17.5 -27t6 -29q0 -35 -23 -59.5t-67 -24.5q-19 0 -35 7.5t-28 19.5t-18.5 27t-6.5 30zM11 805h560v-74h-560v74z" />
    <glyph glyph-name="uni01E0" unicode="&#x1e0;" horiz-adv-x="823" 
d="M808 0h-401v131h95l-21 68h-205l-21 -68h78v-131h-318v131h68l135 439h-41v129h384l177 -568h70v-131zM313 319h131l-66 216zM292 816q0 14 5.5 29t17 27t28 20t37.5 8t38 -8t28.5 -20t17.5 -27t6 -29q0 -35 -23 -59.5t-67 -24.5q-19 0 -35 7.5t-28 19.5t-18.5 27
t-6.5 30zM94 997h560v-74h-560v74z" />
    <glyph glyph-name="uni01E1" unicode="&#x1e1;" horiz-adv-x="600" 
d="M36 458q15 9 38 21t51.5 23.5t61 19t67.5 7.5q45 0 93 -9.5t87.5 -33t65 -63.5t25.5 -100v-195h60v-128h-214l-24 45q-14 -19 -31.5 -31.5t-36 -19.5t-36.5 -10t-31 -3q-36 0 -71 10t-63 30t-45.5 51.5t-17.5 75.5q0 42 16.5 76t45 58t66.5 37t80 13q22 0 39.5 -4.5
t30 -10.5t20 -12t9.5 -8v35q0 34 -27 45t-68 11q-45 0 -82.5 -15t-66.5 -31zM258 111q23 0 40 11t24 22v38q-1 2 -4.5 6.5t-10.5 9.5t-17.5 9t-26.5 4q-30 0 -44 -15t-14 -38q0 -21 15 -34t38 -13zM190 631q0 14 5.5 29t17 27t28 20t37.5 8t38 -8t28.5 -20t17.5 -27t6 -29
q0 -35 -23 -59.5t-67 -24.5q-19 0 -35 7.5t-28 19.5t-18.5 27t-6.5 30zM11 805h560v-74h-560v74z" />
    <glyph glyph-name="uni01E2" unicode="&#x1e2;" horiz-adv-x="1162" 
d="M330 699h783v-221h-173v89h-160v-138h190v-133h-190v-163h160v93h173v-226h-603v133h63v66h-219l-41 -68h77v-131h-347v131h68l260 439h-41v129zM573 319v251l-148 -251h148zM406 897h558v-133h-558v133z" />
    <glyph glyph-name="uni01E3" unicode="&#x1e3;" horiz-adv-x="880" 
d="M856 69q-56 -48 -118 -67.5t-140 -19.5q-56 0 -111 21.5t-94 68.5q-14 -19 -34.5 -35.5t-44 -29t-50 -19.5t-52.5 -7q-36 0 -71 10t-63 30t-45.5 51.5t-17.5 75.5q0 42 16.5 76t45 58t66.5 37t80 13q22 0 39.5 -4.5t30 -10.5t20 -12t9.5 -8v35q0 34 -27 45t-68 11
q-45 0 -82.5 -15t-66.5 -31l-42 116q15 9 38 21t51.5 23.5t61 19t67.5 7.5q51 0 103.5 -12t94.5 -42q32 19 70 29t81 10q62 0 109.5 -18t79.5 -50t48 -75.5t16 -94.5q0 -20 -3 -39.5t-9 -36.5h-315q2 -10 6.5 -24t15.5 -27t30 -22t51 -9q13 0 28.5 1t33.5 6t38 14.5t40 26.5
zM609 379q-23 0 -37.5 -9t-23 -21.5t-12 -26.5t-4.5 -23h151q0 14 -3 28.5t-10.5 26t-22 18.5t-38.5 7zM258 111q23 0 40 11t24 22v38q-1 2 -4.5 6.5t-10.5 9.5t-17.5 9t-26.5 4q-30 0 -44 -15t-14 -38q0 -21 15 -34t38 -13zM173 698h558v-133h-558v133z" />
    <glyph glyph-name="uni01E4" unicode="&#x1e4;" horiz-adv-x="841" 
d="M492 289h63v35h-123v107h394v-107h-40v-35h42v-95h-42v-194h-200l-31 63q-17 -28 -60 -50t-101 -22q-66 0 -123 24.5t-99.5 70.5t-67 111t-24.5 146q0 82 26 149.5t69 116t98 75.5t114 27q54 0 89 -11t56.5 -25t32.5 -28t17 -20l21 72h149v-232l-193 -2q-15 32 -41.5 49
t-58.5 17q-30 0 -55.5 -15.5t-43.5 -41t-28 -60t-10 -71.5q0 -38 9 -71.5t26.5 -58.5t43 -39.5t58.5 -14.5q35 0 55 10t31 25h-53v95z" />
    <glyph glyph-name="uni01E5" unicode="&#x1e5;" horiz-adv-x="640" 
d="M77 -6q9 -8 26.5 -18.5t40.5 -21t50.5 -17.5t56.5 -7q34 0 56 9t35.5 22.5t19 30t5.5 32.5v34q-5 -7 -15 -16.5t-24.5 -18t-34 -14.5t-43.5 -6q-65 0 -110.5 21.5t-74 56.5t-42 80t-13.5 92q0 58 16 105.5t47.5 81t78.5 52t109 18.5q33 0 62 -13t44 -28l20 31h238v-131
h-60v-80h60v-95h-60v-124q0 -62 -19 -112.5t-58 -86.5t-97.5 -56t-137.5 -20q-41 0 -76.5 9t-65 22.5t-51.5 28.5t-36 28zM289 289h74q-7 40 -25 65.5t-44 25.5q-32 0 -51.5 -34t-19.5 -91q0 -23 5 -45t14.5 -39t22.5 -28t30 -11q20 0 37 16.5t26 45.5h-69v95z" />
    <glyph glyph-name="uni01E6" unicode="&#x1e6;" horiz-adv-x="776" 
d="M490 63q-17 -28 -60 -50t-101 -22q-66 0 -123 24.5t-99.5 70.5t-67 111t-24.5 146q0 82 26 149.5t69 116t98 75.5t114 27q54 0 89 -11t56.5 -25t32.5 -28t17 -20l21 72h149v-295h-179q-1 30 -10.5 54t-25.5 40t-36 24.5t-42 8.5q-30 0 -55.5 -15.5t-43.5 -41t-28 -60
t-10 -71.5q0 -38 9 -71.5t26.5 -58.5t43 -39.5t58.5 -14.5q43 0 64 14.5t32 34.5v42h-61v107h332v-107h-40v-250h-200zM273 939l139 -70l135 70l50 -93l-191 -119l-189 119z" />
    <glyph glyph-name="uni01E7" unicode="&#x1e7;" horiz-adv-x="640" 
d="M77 -6q9 -8 26.5 -18.5t40.5 -21t50.5 -17.5t56.5 -7q34 0 56 9t35.5 22.5t19 30t5.5 32.5v34q-5 -7 -15 -16.5t-24.5 -18t-34 -14.5t-43.5 -6q-65 0 -110.5 21.5t-74 56.5t-42 80t-13.5 92q0 58 16 105.5t47.5 81t78.5 52t109 18.5q33 0 62 -13t44 -28l20 31h238v-131
h-60v-299q0 -62 -19 -112.5t-58 -86.5t-97.5 -56t-137.5 -20q-41 0 -76.5 9t-65 22.5t-51.5 28.5t-36 28zM223 255q0 -23 5 -45t14.5 -39t22.5 -28t30 -11q28 0 49.5 31t21.5 85q0 28 -5 52t-14.5 42t-23 28t-29.5 10q-32 0 -51.5 -34t-19.5 -91zM193 740l139 -70l135 70
l50 -93l-191 -119l-189 119z" />
    <glyph glyph-name="uni01E8" unicode="&#x1e8;" horiz-adv-x="815" 
d="M340 570h-54v-163l186 163h-72v129h333v-129h-58l-145 -125l202 -315h58v-130h-390v130h68l-108 170l-74 -63v-107h54v-130h-315v130h54v440h-54v129h315v-129zM273 939l139 -70l135 70l50 -93l-191 -119l-189 119z" />
    <glyph glyph-name="uni01E9" unicode="&#x1e9;" horiz-adv-x="654" 
d="M38 0v130h41v489h-41v131h231v-452l116 69h-72v132h280v-132h-77l-68 -43l135 -193h50v-131h-296v131h42l-76 108l-35 -24v-84h37v-131h-267zM19 984l139 -70l135 70l50 -93l-191 -119l-189 119z" />
    <glyph glyph-name="uni01EA" unicode="&#x1ea;" 
d="M15 353q0 81 25.5 148t72 115.5t111 75t142.5 26.5q92 0 159.5 -26.5t112 -75t66 -117.5t21.5 -153q0 -150 -70.5 -243.5t-204.5 -114.5q-19 -11 -28 -30t-9 -37q0 -21 17 -35t35 -14q22 0 55.5 9.5t64.5 20.5v-143q-23 -10 -57 -17.5t-81 -7.5q-34 0 -65 6.5t-55 24.5
t-38 49.5t-14 82.5q0 30 7 52.5t17 38.5q-64 9 -116 36.5t-89.5 73t-58 109t-20.5 146.5zM373 139q24 0 42.5 15t32 42t20.5 65t7 85q0 46 -6.5 85.5t-20 69t-34.5 46.5t-50 17q-23 0 -41.5 -15.5t-32 -43.5t-21 -67t-7.5 -85q0 -49 8.5 -88.5t23 -67.5t35 -43t44.5 -15z
" />
    <glyph glyph-name="uni01EB" unicode="&#x1eb;" horiz-adv-x="574" 
d="M11 252q0 63 23.5 111.5t62 81.5t88 50t100.5 17q59 0 110 -18.5t88.5 -53t58.5 -84t21 -112.5q0 -52 -15.5 -94.5t-43 -74t-65 -52t-81.5 -29.5l-8 -5q-20 -11 -29.5 -30.5t-9.5 -37.5q0 -21 17 -35t35 -14q22 0 55.5 9.5t64.5 20.5v-143q-23 -10 -57 -17.5t-81 -7.5
q-34 0 -65 6.5t-55 24.5t-38 49.5t-14 82.5q0 36 9.5 61.5t21.5 39.5q-41 10 -76 31.5t-61 53t-41 74t-15 95.5zM290 115q16 0 28.5 10t21.5 28t13.5 42.5t4.5 52.5t-5 52.5t-14 42.5t-22.5 28.5t-31.5 10.5q-15 0 -27.5 -10t-21.5 -28t-14.5 -42t-5.5 -51q0 -62 21 -99
t53 -37z" />
    <glyph glyph-name="uni01EC" unicode="&#x1ec;" 
d="M15 353q0 81 25.5 148t72 115.5t111 75t142.5 26.5q92 0 159.5 -26.5t112 -75t66 -117.5t21.5 -153q0 -151 -71 -244t-206 -114q-18 -11 -27 -30t-9 -37q0 -21 17 -35t35 -14q22 0 55.5 9.5t64.5 20.5v-143q-23 -10 -57 -17.5t-81 -7.5q-34 0 -65 6.5t-55 24.5t-38 49.5
t-14 82.5q0 30 7 52.5t17 38.5q-63 10 -115.5 37.5t-89.5 73t-57.5 109t-20.5 145.5zM91 897h558v-133h-558v133zM373 139q24 0 42.5 15t32 42t20.5 65t7 85q0 46 -6.5 85.5t-20 69t-34.5 46.5t-50 17q-23 0 -41.5 -15.5t-32 -43.5t-21 -67t-7.5 -85q0 -49 8.5 -88.5
t23 -67.5t35 -43t44.5 -15z" />
    <glyph glyph-name="uni01ED" unicode="&#x1ed;" horiz-adv-x="574" 
d="M11 252q0 63 23.5 111.5t62 81.5t88 50t100.5 17q59 0 110 -18.5t88.5 -53t58.5 -84t21 -112.5q0 -54 -16.5 -97.5t-46 -75.5t-69.5 -52t-87 -27l-4 -3q-20 -11 -29.5 -30.5t-9.5 -37.5q0 -21 17 -35t35 -14q22 0 55.5 9.5t64.5 20.5v-143q-23 -10 -57 -17.5t-81 -7.5
q-34 0 -65 6.5t-55 24.5t-38 49.5t-14 82.5q0 38 10.5 63.5t22.5 39.5q-39 11 -73 32.5t-58.5 53t-39 73t-14.5 93.5zM8 698h558v-133h-558v133zM290 115q16 0 28.5 10t21.5 28t13.5 42.5t4.5 52.5t-5 52.5t-14 42.5t-22.5 28.5t-31.5 10.5q-15 0 -27.5 -10t-21.5 -28
t-14.5 -42t-5.5 -51q0 -62 21 -99t53 -37z" />
    <glyph glyph-name="uni01EE" unicode="&#x1ee;" horiz-adv-x="664" 
d="M488 428q27 -10 55 -26t50.5 -39t37 -52t14.5 -64q0 -56 -30 -103.5t-78.5 -82t-109.5 -54.5t-124 -20q-44 0 -88 9.5t-82.5 25t-69 36t-48.5 42.5l126 106q35 -28 72.5 -46.5t90.5 -18.5q26 0 46.5 8.5t35 22.5t22 32t7.5 37q0 41 -28 65.5t-74 24.5h-49v119h2l143 117
h-209v-131h-169v263h609v-133l-150 -138h-2zM208 939l139 -70l135 70l50 -93l-191 -119l-189 119z" />
    <glyph glyph-name="uni01EF" unicode="&#x1ef;" horiz-adv-x="553" 
d="M405 200q25 -7 51 -22t47.5 -41t35 -66t13.5 -97q0 -58 -25 -100.5t-65.5 -70t-92 -41t-104.5 -13.5q-36 0 -73.5 8t-72 21.5t-64.5 31t-50 36.5l124 80q26 -17 57.5 -28t79.5 -11q45 0 69.5 29t24.5 76q0 36 -11.5 59t-29.5 37t-39 19.5t-40 5.5h-40v65l146 193h-191
v-71h-130v200h512v-129zM150 749l139 -70l135 70l50 -93l-191 -119l-189 119z" />
    <glyph glyph-name="uni01F0" unicode="&#x1f0;" horiz-adv-x="360" 
d="M128 370h-42v130h232v-430q0 -47 -10 -96t-42 -90t-92 -67t-160 -26v134q43 0 66.5 16t34 38.5t12 47.5t1.5 43v300zM85 749l139 -70l135 70l50 -93l-191 -119l-189 119z" />
    <glyph glyph-name="uni01F1" unicode="&#x1f1;" horiz-adv-x="1434" 
d="M25 0v133h62v434h-62v132h305q91 0 161.5 -26.5t119 -72t74 -107.5t25.5 -134q0 -172 -99 -265.5t-285 -93.5h-301zM480 359q0 40 -8.5 77.5t-26.5 66.5t-46.5 46.5t-68.5 17.5h-38v-434h38q40 0 68.5 18t46.5 48.5t26.5 71.5t8.5 88zM751 436v263h656v-133l-364 -434
h185v128h178v-260h-661v130l364 437h-189v-131h-169z" />
    <glyph glyph-name="uni01F2" unicode="&#x1f2;" horiz-adv-x="1273" 
d="M25 0v133h62v434h-62v132h305q91 0 161.5 -26.5t119 -72t74 -107.5t25.5 -134q0 -172 -99 -265.5t-285 -93.5h-301zM480 359q0 40 -8.5 77.5t-26.5 66.5t-46.5 46.5t-68.5 17.5h-38v-434h38q40 0 68.5 18t46.5 48.5t26.5 71.5t8.5 88zM745 300v200h495v-129l-238 -240
h105v68h141v-199h-503v131l241 240h-111v-71h-130z" />
    <glyph glyph-name="uni01F3" unicode="&#x1f3;" horiz-adv-x="1187" 
d="M368 620h-46v130h249v-620h48v-130h-234l-17 37q-5 -5 -15.5 -12.5t-26.5 -15t-37 -13t-47 -5.5q-53 0 -96 21.5t-73 58t-46.5 84.5t-16.5 100q0 58 19 105.5t51 80.5t74 51t88 18q53 0 82.5 -14.5t43.5 -23.5v148zM225 255q0 -23 5 -45t14.5 -39t22.5 -28t30 -11
q28 0 49.5 31t21.5 85q0 28 -5 52t-14.5 42t-23 28t-29.5 10q-32 0 -51.5 -34t-19.5 -91zM659 300v200h495v-129l-238 -240h105v68h141v-199h-503v131l241 240h-111v-71h-130z" />
    <glyph glyph-name="uni01F4" unicode="&#x1f4;" horiz-adv-x="776" 
d="M490 63q-17 -28 -60 -50t-101 -22q-66 0 -123 24.5t-99.5 70.5t-67 111t-24.5 146q0 82 26 149.5t69 116t98 75.5t114 27q54 0 89 -11t56.5 -25t32.5 -28t17 -20l21 72h149v-295h-179q-1 30 -10.5 54t-25.5 40t-36 24.5t-42 8.5q-30 0 -55.5 -15.5t-43.5 -41t-28 -60
t-10 -71.5q0 -38 9 -71.5t26.5 -58.5t43 -39.5t58.5 -14.5q43 0 64 14.5t32 34.5v42h-61v107h332v-107h-40v-250h-200zM564 900l-151 -142h-125l78 142h198z" />
    <glyph glyph-name="uni01F5" unicode="&#x1f5;" horiz-adv-x="640" 
d="M77 -6q9 -8 26.5 -18.5t40.5 -21t50.5 -17.5t56.5 -7q34 0 56 9t35.5 22.5t19 30t5.5 32.5v34q-5 -7 -15 -16.5t-24.5 -18t-34 -14.5t-43.5 -6q-65 0 -110.5 21.5t-74 56.5t-42 80t-13.5 92q0 58 16 105.5t47.5 81t78.5 52t109 18.5q33 0 62 -13t44 -28l20 31h238v-131
h-60v-299q0 -62 -19 -112.5t-58 -86.5t-97.5 -56t-137.5 -20q-41 0 -76.5 9t-65 22.5t-51.5 28.5t-36 28zM223 255q0 -23 5 -45t14.5 -39t22.5 -28t30 -11q28 0 49.5 31t21.5 85q0 28 -5 52t-14.5 42t-23 28t-29.5 10q-32 0 -51.5 -34t-19.5 -91zM510 701l-151 -142h-125
l78 142h198z" />
    <glyph glyph-name="uni01F6" unicode="&#x1f6;" horiz-adv-x="1146" 
d="M685 567v-462q0 -60 6.5 -98t19.5 -59.5t31.5 -29.5t42.5 -8q23 0 41.5 6.5t32 27t20.5 59t7 103.5v262h-54v132h296v-129h-54v-293q0 -178 -73 -261t-214 -83q-152 5 -231 86.5t-79 252.5v210h-190v-151h62v-132h-324v132h55v435h-55v132h324v-132h-62v-151h190v151h-59
v132h325v-132h-58z" />
    <glyph glyph-name="uni01F7" unicode="&#x1f7;" horiz-adv-x="640" 
d="M349 663q57 29 98 42.5t72 13.5t51.5 -12.5t32 -34.5t16 -51.5t4.5 -63.5q0 -58 -21 -112.5t-56.5 -102t-83 -87t-100.5 -67.5l-76 -40v-265h61v-132h-322v132h56v685h-56v131h261v-68zM286 478v-184l45 24q21 11 39 29.5t30.5 41t20 47.5t7.5 48q0 37 -37 37
q-24 0 -55 -16z" />
    <glyph glyph-name="uni01F8" unicode="&#x1f8;" horiz-adv-x="816" 
d="M791 570h-66v-570h-215l-255 381v-252h77v-129h-307v129h59v441h-58v129h287l246 -367v238h-69v129h301v-129zM468 900l78 -142h-125l-151 142h198z" />
    <glyph glyph-name="uni01F9" unicode="&#x1f9;" horiz-adv-x="647" 
d="M333 0h-308v131h42v239h-42v130h213l23 -62q26 35 60.5 57.5t82.5 22.5q58 0 93.5 -19.5t55 -51t26 -71t6.5 -78.5v-167h47v-131h-252v273q0 13 -0.5 29t-5.5 30t-16.5 24t-33.5 10q-19 0 -31.5 -8.5t-19.5 -22t-9.5 -30t-2.5 -32.5v-142h72v-131zM292 701l78 -142h-125
l-151 142h198z" />
    <glyph glyph-name="uni01FA" unicode="&#x1fa;" horiz-adv-x="823" 
d="M332 822q0 18 -12 30t-27 12q-20 0 -32 -12t-12 -30t12 -30t29 -12q19 0 30.5 12t11.5 30zM407 822q0 -22 -9.5 -41t-25.5 -33.5t-37 -23t-43 -8.5q-25 0 -46.5 8.5t-37.5 23t-25 33.5t-9 41t9.5 41t26 33.5t37.5 23t45 8.5t44.5 -8.5t36.5 -23t25 -33.5t9 -41zM808 0
h-401v131h95l-21 68h-205l-21 -68h78v-131h-318v131h68l135 439h-41v129h384l177 -568h70v-131zM313 319h131l-66 216zM685 900l-151 -142h-125l78 142h198z" />
    <glyph glyph-name="uni01FB" unicode="&#x1fb;" horiz-adv-x="600" 
d="M319 649q0 18 -12 30t-27 12q-20 0 -32 -12t-12 -30t12 -30t29 -12q19 0 30.5 12t11.5 30zM394 649q0 -22 -9.5 -41t-25.5 -33.5t-37 -23t-43 -8.5q-25 0 -46.5 8.5t-37.5 23t-25 33.5t-9 41t9.5 41t26 33.5t37.5 23t45 8.5t44.5 -8.5t36.5 -23t25 -33.5t9 -41zM36 458
q15 9 38 21t51.5 23.5t61 19t67.5 7.5q45 0 93 -9.5t87.5 -33t65 -63.5t25.5 -100v-195h60v-128h-214l-24 45q-14 -19 -31.5 -31.5t-36 -19.5t-36.5 -10t-31 -3q-36 0 -71 10t-63 30t-45.5 51.5t-17.5 75.5q0 42 16.5 76t45 58t66.5 37t80 13q22 0 39.5 -4.5t30 -10.5
t20 -12t9.5 -8v35q0 34 -27 45t-68 11q-45 0 -82.5 -15t-66.5 -31zM258 111q23 0 40 11t24 22v38q-1 2 -4.5 6.5t-10.5 9.5t-17.5 9t-26.5 4q-30 0 -44 -15t-14 -38q0 -21 15 -34t38 -13zM498 915l-151 -142h-125l78 142h198z" />
    <glyph glyph-name="AEacute" unicode="&#x1fc;" horiz-adv-x="1162" 
d="M330 699h783v-221h-173v89h-160v-138h190v-133h-190v-163h160v93h173v-226h-603v133h63v66h-219l-41 -68h77v-131h-347v131h68l260 439h-41v129zM573 319v251l-148 -251h148zM854 900l-151 -142h-125l78 142h198z" />
    <glyph glyph-name="aeacute" unicode="&#x1fd;" horiz-adv-x="905" 
d="M856 69q-56 -48 -118 -67.5t-140 -19.5q-56 0 -111 21.5t-94 68.5q-14 -19 -34.5 -35.5t-44 -29t-50 -19.5t-52.5 -7q-36 0 -71 10t-63 30t-45.5 51.5t-17.5 75.5q0 42 16.5 76t45 58t66.5 37t80 13q22 0 39.5 -4.5t30 -10.5t20 -12t9.5 -8v35q0 34 -27 45t-68 11
q-45 0 -82.5 -15t-66.5 -31l-42 116q15 9 38 21t51.5 23.5t61 19t67.5 7.5q51 0 103.5 -12t94.5 -42q32 19 70 29t81 10q62 0 109.5 -18t79.5 -50t48 -75.5t16 -94.5q0 -20 -3 -39.5t-9 -36.5h-315q2 -10 6.5 -24t15.5 -27t30 -22t51 -9q13 0 28.5 1t33.5 6t38 14.5t40 26.5
zM609 379q-23 0 -37.5 -9t-23 -21.5t-12 -26.5t-4.5 -23h151q0 14 -3 28.5t-10.5 26t-22 18.5t-38.5 7zM258 111q23 0 40 11t24 22v38q-1 2 -4.5 6.5t-10.5 9.5t-17.5 9t-26.5 4q-30 0 -44 -15t-14 -38q0 -21 15 -34t38 -13zM590 701l-151 -142h-125l78 142h198z" />
    <glyph glyph-name="Oslashacute" unicode="&#x1fe;" 
d="M109 80q-45 47 -69.5 114.5t-24.5 158.5q0 81 25.5 148t72 115.5t111 75t142.5 26.5q48 0 89.5 -8t76.5 -22l8 11h146l-54 -77q48 -49 70.5 -119t22.5 -157q0 -85 -23 -152.5t-68 -114.5t-110.5 -72t-150.5 -25q-91 0 -165 31l-9 -13h-146zM262 353q0 -14 0.5 -26
t1.5 -24l162 233q-25 28 -62 28q-23 0 -41.5 -15.5t-32 -43.5t-21 -67t-7.5 -85zM373 139q24 0 42.5 15t32 42t20.5 65t7 85q0 12 -0.5 24t-1.5 23l-158 -227q24 -27 58 -27zM578 900l-151 -142h-125l78 142h198z" />
    <glyph glyph-name="oslashacute" unicode="&#x1ff;" horiz-adv-x="574" 
d="M83 64q-35 33 -53.5 79.5t-18.5 108.5q0 63 23.5 111.5t62 81.5t88 50t100.5 17q35 0 67 -7.5t61 -18.5l12 15h118l-53 -67q34 -34 53.5 -82t19.5 -108q0 -62 -21.5 -109.5t-58.5 -80.5t-86.5 -50t-106.5 -17q-68 0 -129 26l-10 -13h-118zM290 115q16 0 28.5 10t21.5 28
t13.5 42.5t4.5 52.5v7.5t-1 8.5l-104 -134q16 -15 37 -15zM216 234l104 133q-8 6 -17 10.5t-18 4.5q-15 0 -27.5 -10t-21.5 -28t-14.5 -42t-5.5 -51v-17zM484 701l-151 -142h-125l78 142h198z" />
    <glyph glyph-name="uni0200" unicode="&#x200;" horiz-adv-x="823" 
d="M488 892l78 -142h-125l-151 142h198zM246 892l78 -142h-125l-151 142h198zM808 0h-401v131h95l-21 68h-205l-21 -68h78v-131h-318v131h68l135 439h-41v129h384l177 -568h70v-131zM313 319h131l-66 216z" />
    <glyph glyph-name="uni0201" unicode="&#x201;" horiz-adv-x="600" 
d="M372 699l78 -142h-125l-151 142h198zM130 699l78 -142h-125l-151 142h198zM36 458q15 9 38 21t51.5 23.5t61 19t67.5 7.5q45 0 93 -9.5t87.5 -33t65 -63.5t25.5 -100v-195h60v-128h-214l-24 45q-14 -19 -31.5 -31.5t-36 -19.5t-36.5 -10t-31 -3q-36 0 -71 10t-63 30
t-45.5 51.5t-17.5 75.5q0 42 16.5 76t45 58t66.5 37t80 13q22 0 39.5 -4.5t30 -10.5t20 -12t9.5 -8v35q0 34 -27 45t-68 11q-45 0 -82.5 -15t-66.5 -31zM258 111q23 0 40 11t24 22v38q-1 2 -4.5 6.5t-10.5 9.5t-17.5 9t-26.5 4q-30 0 -44 -15t-14 -38q0 -21 15 -34t38 -13z
" />
    <glyph glyph-name="uni0202" unicode="&#x202;" horiz-adv-x="823" 
d="M180 749q4 40 22 71t45 52t62.5 32t74.5 11q36 0 71 -10t63 -30.5t47.5 -51.5t25.5 -72h-155q-5 32 -19 50t-33 18q-20 0 -32 -19.5t-17 -49.5zM808 0h-401v131h95l-21 68h-205l-21 -68h78v-131h-318v131h68l135 439h-41v129h384l177 -568h70v-131zM313 319h131l-66 216z
" />
    <glyph glyph-name="uni0203" unicode="&#x203;" horiz-adv-x="600" 
d="M65 574q4 40 22 71t45 52t62.5 32t74.5 11q36 0 71 -10t63 -30.5t47.5 -51.5t25.5 -72h-155q-5 32 -19 50t-33 18q-20 0 -32 -19.5t-17 -49.5zM36 458q15 9 38 21t51.5 23.5t61 19t67.5 7.5q45 0 93 -9.5t87.5 -33t65 -63.5t25.5 -100v-195h60v-128h-214l-24 45
q-14 -19 -31.5 -31.5t-36 -19.5t-36.5 -10t-31 -3q-36 0 -71 10t-63 30t-45.5 51.5t-17.5 75.5q0 42 16.5 76t45 58t66.5 37t80 13q22 0 39.5 -4.5t30 -10.5t20 -12t9.5 -8v35q0 34 -27 45t-68 11q-45 0 -82.5 -15t-66.5 -31zM258 111q23 0 40 11t24 22v38q-1 2 -4.5 6.5
t-10.5 9.5t-17.5 9t-26.5 4q-30 0 -44 -15t-14 -38q0 -21 15 -34t38 -13z" />
    <glyph glyph-name="uni0204" unicode="&#x204;" horiz-adv-x="653" 
d="M488 892l78 -142h-125l-151 142h198zM246 892l78 -142h-125l-151 142h198zM25 699h603v-221h-173v89h-160v-138h190v-133h-190v-163h160v93h173v-226h-603v133h63v434h-63v132z" />
    <glyph glyph-name="uni0205" unicode="&#x205;" horiz-adv-x="542" 
d="M381 704l78 -142h-125l-151 142h198zM139 704l78 -142h-125l-151 142h198zM527 69q-56 -48 -118 -67.5t-140 -19.5q-47 0 -94 15.5t-84.5 48t-61.5 84t-24 123.5q0 61 21 109.5t57 82.5t85 51.5t106 17.5q62 0 109.5 -18t79.5 -50t48 -75.5t16 -94.5q0 -20 -3 -39.5
t-9 -36.5h-315q2 -10 6.5 -24t15.5 -27t30 -22t51 -9q13 0 28.5 1t33.5 6t38 14.5t40 26.5zM280 379q-23 0 -37.5 -9t-23 -21.5t-12 -26.5t-4.5 -23h151q0 14 -3 28.5t-10.5 26t-22 18.5t-38.5 7z" />
    <glyph glyph-name="uni0206" unicode="&#x206;" horiz-adv-x="653" 
d="M159 749q4 40 22 71t45 52t62.5 32t74.5 11q36 0 71 -10t63 -30.5t47.5 -51.5t25.5 -72h-155q-5 32 -19 50t-33 18q-20 0 -32 -19.5t-17 -49.5zM25 699h603v-221h-173v89h-160v-138h190v-133h-190v-163h160v93h173v-226h-603v133h63v434h-63v132z" />
    <glyph glyph-name="uni0207" unicode="&#x207;" horiz-adv-x="542" 
d="M78 546q4 40 22 71t45 52t62.5 32t74.5 11q36 0 71 -10t63 -30.5t47.5 -51.5t25.5 -72h-155q-5 32 -19 50t-33 18q-20 0 -32 -19.5t-17 -49.5zM527 69q-56 -48 -118 -67.5t-140 -19.5q-47 0 -94 15.5t-84.5 48t-61.5 84t-24 123.5q0 61 21 109.5t57 82.5t85 51.5
t106 17.5q62 0 109.5 -18t79.5 -50t48 -75.5t16 -94.5q0 -20 -3 -39.5t-9 -36.5h-315q2 -10 6.5 -24t15.5 -27t30 -22t51 -9q13 0 28.5 1t33.5 6t38 14.5t40 26.5zM280 379q-23 0 -37.5 -9t-23 -21.5t-12 -26.5t-4.5 -23h151q0 14 -3 28.5t-10.5 26t-22 18.5t-38.5 7z" />
    <glyph glyph-name="uni0208" unicode="&#x208;" horiz-adv-x="382" 
d="M296 892l78 -142h-125l-151 142h198zM54 892l78 -142h-125l-151 142h198zM25 699h332v-132h-62v-434h62v-133h-332v133h63v434h-63v132z" />
    <glyph glyph-name="uni0209" unicode="&#x209;" horiz-adv-x="330" 
d="M305 0h-280v131h42v239h-42v130h232v-369h48v-131zM264 704l78 -142h-125l-151 142h198zM22 704l78 -142h-125l-151 142h198z" />
    <glyph glyph-name="uni020A" unicode="&#x20a;" horiz-adv-x="382" 
d="M-14 749q4 40 22 71t45 52t62.5 32t74.5 11q36 0 71 -10t63 -30.5t47.5 -51.5t25.5 -72h-155q-5 32 -19 50t-33 18q-20 0 -32 -19.5t-17 -49.5zM25 699h332v-132h-62v-434h62v-133h-332v133h63v434h-63v132z" />
    <glyph glyph-name="uni020B" unicode="&#x20b;" horiz-adv-x="330" 
d="M305 0h-280v131h42v239h-42v130h232v-369h48v-131zM-60 544q4 40 22 71t45 52t62.5 32t74.5 11q36 0 71 -10t63 -30.5t47.5 -51.5t25.5 -72h-155q-5 32 -19 50t-33 18q-20 0 -32 -19.5t-17 -49.5z" />
    <glyph glyph-name="uni020C" unicode="&#x20c;" 
d="M477 894l78 -142h-125l-151 142h198zM235 894l78 -142h-125l-151 142h198zM373 -18q-78 0 -144 23t-113.5 69t-74 115.5t-26.5 163.5q0 81 25.5 148t72 115.5t111 75t142.5 26.5q92 0 159.5 -26.5t112 -75t66 -117.5t21.5 -153q0 -85 -23 -152.5t-68 -114.5t-110.5 -72
t-150.5 -25zM373 139q24 0 42.5 15t32 42t20.5 65t7 85q0 46 -6.5 85.5t-20 69t-34.5 46.5t-50 17q-23 0 -41.5 -15.5t-32 -43.5t-21 -67t-7.5 -85q0 -49 8.5 -88.5t23 -67.5t35 -43t44.5 -15z" />
    <glyph glyph-name="uni020D" unicode="&#x20d;" horiz-adv-x="574" 
d="M381 704l78 -142h-125l-151 142h198zM139 704l78 -142h-125l-151 142h198zM290 -13q-54 0 -104.5 16.5t-89.5 49.5t-62 83t-23 116q0 63 23.5 111.5t62 81.5t88 50t100.5 17q59 0 110 -18.5t88.5 -53t58.5 -84t21 -112.5q0 -62 -21.5 -109.5t-58.5 -80.5t-86.5 -50
t-106.5 -17zM290 115q16 0 28.5 10t21.5 28t13.5 42.5t4.5 52.5t-5 52.5t-14 42.5t-22.5 28.5t-31.5 10.5q-15 0 -27.5 -10t-21.5 -28t-14.5 -42t-5.5 -51q0 -62 21 -99t53 -37z" />
    <glyph glyph-name="uni020E" unicode="&#x20e;" 
d="M159 749q4 40 22 71t45 52t62.5 32t74.5 11q36 0 71 -10t63 -30.5t47.5 -51.5t25.5 -72h-155q-5 32 -19 50t-33 18q-20 0 -32 -19.5t-17 -49.5zM373 -18q-78 0 -144 23t-113.5 69t-74 115.5t-26.5 163.5q0 81 25.5 148t72 115.5t111 75t142.5 26.5q92 0 159.5 -26.5
t112 -75t66 -117.5t21.5 -153q0 -85 -23 -152.5t-68 -114.5t-110.5 -72t-150.5 -25zM373 139q24 0 42.5 15t32 42t20.5 65t7 85q0 46 -6.5 85.5t-20 69t-34.5 46.5t-50 17q-23 0 -41.5 -15.5t-32 -43.5t-21 -67t-7.5 -85q0 -49 8.5 -88.5t23 -67.5t35 -43t44.5 -15z" />
    <glyph glyph-name="uni020F" unicode="&#x20f;" horiz-adv-x="574" 
d="M82 547q4 40 22 71t45 52t62.5 32t74.5 11q36 0 71 -10t63 -30.5t47.5 -51.5t25.5 -72h-155q-5 32 -19 50t-33 18q-20 0 -32 -19.5t-17 -49.5zM290 -13q-54 0 -104.5 16.5t-89.5 49.5t-62 83t-23 116q0 63 23.5 111.5t62 81.5t88 50t100.5 17q59 0 110 -18.5t88.5 -53
t58.5 -84t21 -112.5q0 -62 -21.5 -109.5t-58.5 -80.5t-86.5 -50t-106.5 -17zM290 115q16 0 28.5 10t21.5 28t13.5 42.5t4.5 52.5t-5 52.5t-14 42.5t-22.5 28.5t-31.5 10.5q-15 0 -27.5 -10t-21.5 -28t-14.5 -42t-5.5 -51q0 -62 21 -99t53 -37z" />
    <glyph glyph-name="uni0210" unicode="&#x210;" horiz-adv-x="737" 
d="M449 894l78 -142h-125l-151 142h198zM207 894l78 -142h-125l-151 142h198zM25 699h325q87 0 141 -16t84.5 -44t41 -65.5t10.5 -80.5q0 -29 -11 -54t-30.5 -43.5t-46 -31t-57.5 -16.5q26 -4 49.5 -16.5t41.5 -31.5t29 -43t11 -51q0 -32 5 -50t19 -18q23 0 23 32v33h67v-55
q0 -31 -7 -60t-24 -51t-45 -35.5t-70 -13.5q-99 0 -146.5 49t-47.5 137q0 34 -3 56t-13.5 34.5t-30.5 17.5t-53 5v-155h61v-132h-323v132h56v436h-56v131zM287 569v-170h45q44 0 70 20.5t26 60.5q0 45 -23.5 67t-67.5 22h-50z" />
    <glyph glyph-name="uni0211" unicode="&#x211;" horiz-adv-x="414" 
d="M311 702l78 -142h-125l-151 142h198zM69 702l78 -142h-125l-151 142h198zM308 0h-283v131h44v239h-43v130h188l30 -64q10 18 21 34t28 28.5t42 19.5t64 7v-180q-68 0 -104.5 -22.5t-36.5 -88.5v-103h50v-131z" />
    <glyph glyph-name="uni0212" unicode="&#x212;" horiz-adv-x="737" 
d="M138 749q4 40 22 71t45 52t62.5 32t74.5 11q36 0 71 -10t63 -30.5t47.5 -51.5t25.5 -72h-155q-5 32 -19 50t-33 18q-20 0 -32 -19.5t-17 -49.5zM25 699h325q87 0 141 -16t84.5 -44t41 -65.5t10.5 -80.5q0 -29 -11 -54t-30.5 -43.5t-46 -31t-57.5 -16.5q26 -4 49.5 -16.5
t41.5 -31.5t29 -43t11 -51q0 -32 5 -50t19 -18q23 0 23 32v33h67v-55q0 -31 -7 -60t-24 -51t-45 -35.5t-70 -13.5q-99 0 -146.5 49t-47.5 137q0 34 -3 56t-13.5 34.5t-30.5 17.5t-53 5v-155h61v-132h-323v132h56v436h-56v131zM287 569v-170h45q44 0 70 20.5t26 60.5
q0 45 -23.5 67t-67.5 22h-50z" />
    <glyph glyph-name="uni0213" unicode="&#x213;" horiz-adv-x="414" 
d="M-2 563q4 40 22 71t45 52t62.5 32t74.5 11q36 0 71 -10t63 -30.5t47.5 -51.5t25.5 -72h-155q-5 32 -19 50t-33 18q-20 0 -32 -19.5t-17 -49.5zM308 0h-283v131h44v239h-43v130h188l30 -64q10 18 21 34t28 28.5t42 19.5t64 7v-180q-68 0 -104.5 -22.5t-36.5 -88.5v-103h50
v-131z" />
    <glyph glyph-name="uni0214" unicode="&#x214;" horiz-adv-x="737" 
d="M488 893l78 -142h-125l-151 142h198zM246 893l78 -142h-125l-151 142h198zM15 699h318v-129h-54v-216q0 -60 6.5 -98t19.5 -59.5t31.5 -29.5t42.5 -8q23 0 41.5 6.5t32 27t20.5 59t7 103.5v212h-54v132h296v-129h-54v-243q0 -178 -73 -261t-214 -83q-152 5 -231 86.5
t-79 252.5v247h-56v130z" />
    <glyph glyph-name="uni0215" unicode="&#x215;" horiz-adv-x="631" 
d="M381 704l78 -142h-125l-151 142h198zM139 704l78 -142h-125l-151 142h198zM15 500h242v-241q0 -65 11.5 -95.5t42.5 -30.5q26 0 44.5 21t18.5 55v159h-66v132h259v-367h49v-133h-189l-27 63q-8 -9 -19.5 -22.5t-28 -25.5t-39.5 -20.5t-55 -8.5q-57 0 -95.5 15t-62 45
t-33.5 76t-10 108v138h-42v132z" />
    <glyph glyph-name="uni0216" unicode="&#x216;" horiz-adv-x="737" 
d="M171 749q4 40 22 71t45 52t62.5 32t74.5 11q36 0 71 -10t63 -30.5t47.5 -51.5t25.5 -72h-155q-5 32 -19 50t-33 18q-20 0 -32 -19.5t-17 -49.5zM15 699h318v-129h-54v-216q0 -60 6.5 -98t19.5 -59.5t31.5 -29.5t42.5 -8q23 0 41.5 6.5t32 27t20.5 59t7 103.5v212h-54v132
h296v-129h-54v-243q0 -178 -73 -261t-214 -83q-152 5 -231 86.5t-79 252.5v247h-56v130z" />
    <glyph glyph-name="uni0217" unicode="&#x217;" horiz-adv-x="631" 
d="M90 555q4 40 22 71t45 52t62.5 32t74.5 11q36 0 71 -10t63 -30.5t47.5 -51.5t25.5 -72h-155q-5 32 -19 50t-33 18q-20 0 -32 -19.5t-17 -49.5zM15 500h242v-241q0 -65 11.5 -95.5t42.5 -30.5q26 0 44.5 21t18.5 55v159h-66v132h259v-367h49v-133h-189l-27 63
q-8 -9 -19.5 -22.5t-28 -25.5t-39.5 -20.5t-55 -8.5q-57 0 -95.5 15t-62 45t-33.5 76t-10 108v138h-42v132z" />
    <glyph glyph-name="Scommaaccent" unicode="&#x218;" horiz-adv-x="710" 
d="M211 -307q19 24 34 47.5t25.5 50t15.5 57t5 66.5v20.5t-1 21.5l158 -3q0 -40 -10 -83t-28 -85t-44 -79.5t-59 -65.5zM25 0v252h186q0 -31 14 -50.5t33.5 -30.5t41 -15t37.5 -4q13 0 28 2t27.5 7.5t21 15t8.5 25.5q0 19 -28.5 31.5t-71 24.5t-92.5 27.5t-92.5 42.5
t-71 68.5t-28.5 105.5q0 55 23.5 96t59 67t77 39t78.5 13q31 0 62 -5.5t59 -17.5t50.5 -31.5t37.5 -47.5l10 84h172v-251h-181q0 28 -10 49.5t-27.5 36.5t-41 22.5t-49.5 7.5q-11 0 -23 -3.5t-22.5 -10t-17 -16.5t-6.5 -23q0 -26 29.5 -43t73.5 -32t95 -32.5t95 -43.5
t73.5 -65t29.5 -98t-24.5 -99t-63 -65.5t-85.5 -36.5t-92 -11q-38 0 -70 8t-58 21t-46.5 29.5t-34.5 33.5l-11 -77h-175z" />
    <glyph glyph-name="scommaaccent" unicode="&#x219;" horiz-adv-x="508" 
d="M15 0v180h134q0 -20 12.5 -33t29.5 -20.5t35 -10.5t29 -3q15 0 29.5 6.5t14.5 27.5q0 14 -20.5 22.5t-52 16.5t-67.5 19t-67.5 30.5t-52 51t-20.5 80.5q0 38 17.5 65.5t44 45t57 26t57.5 8.5q51 0 92 -23t57 -55l8 66h123v-180h-130q0 16 -9 29.5t-23.5 24t-32.5 16.5
t-37 6q-16 0 -27.5 -8.5t-11.5 -27.5q0 -17 21 -27t52.5 -19.5t68.5 -21t68.5 -30.5t52.5 -48.5t21 -75.5q0 -35 -15.5 -63t-41 -47.5t-59.5 -29.5t-70 -10q-54 0 -94.5 22t-58.5 51l-9 -61h-125zM144 -258q17 21 28.5 36t18.5 29t10 29.5t3 38.5q0 25 -3 67l158 -3v-12
q0 -73 -29 -129t-90 -109z" />
    <glyph glyph-name="uni021A" unicode="&#x21a;" horiz-adv-x="701" 
d="M211 -307q19 24 34 47.5t25.5 50t15.5 57t5 66.5v20.5t-1 21.5l158 -3q0 -40 -10 -83t-28 -85t-44 -79.5t-59 -65.5zM686 699v-260h-147v128h-84v-434h83v-133h-372v133h82v434h-86v-128h-147v260h671z" />
    <glyph glyph-name="uni021B" unicode="&#x21b;" horiz-adv-x="363" 
d="M15 500h54v92l184 59v-151h95v-130h-95v-178q0 -7 -0.5 -14t-0.5 -15q0 -20 5.5 -35.5t27.5 -15.5q10 0 29.5 5.5t33.5 11.5v-128q-11 -5 -28 -8.5t-35 -5.5t-33.5 -3.5t-24.5 -1.5q-56 0 -87.5 15t-46.5 42t-19 66t-5 87v178h-54v130zM74 -258q17 21 28.5 36t18.5 29
t10 29.5t3 38.5q0 25 -3 67l158 -3v-12q0 -73 -29 -129t-90 -109z" />
    <glyph glyph-name="uni021C" unicode="&#x21c;" horiz-adv-x="531" 
d="M17 472v226h118l17 -48q6 7 20.5 17t34.5 19t44 15t50 6q42 0 81 -9.5t68 -33.5t46.5 -64t17.5 -101q0 -42 -16.5 -75.5t-45.5 -62.5q29 -23 45.5 -63t16.5 -106q0 -67 -41.5 -116t-107.5 -88t-149 -72t-165 -68l2 137q81 33 132 53t79.5 39.5t39 45.5t11.5 70
q0 28 -4 43t-15 23q-57 -27 -119.5 -52.5t-125.5 -51.5l2 137q78 31 128.5 50.5t80 38t41.5 42t12 62.5q0 45 -18 69.5t-53 24.5q-23 0 -38 -10t-24 -25.5t-13 -34.5t-5 -37h-147z" />
    <glyph glyph-name="uni021D" unicode="&#x21d;" horiz-adv-x="531" 
d="M18 296v198h106l15 -42q6 6 18.5 15t30.5 16.5t39.5 13t44.5 5.5q39 0 74 -8.5t61.5 -29t42 -55.5t15.5 -89q0 -36 -15 -66t-41 -55q26 -20 41 -55t15 -93q0 -59 -37.5 -101.5t-97 -77t-133.5 -63.5t-148 -60l1 120q73 28 119 46t71.5 35t35 40t10.5 62q0 24 -3.5 37
t-13.5 20q-51 -23 -107.5 -45.5t-112.5 -45.5l1 120q70 27 115.5 44t72.5 33.5t37.5 37t10.5 54.5q0 39 -16 61t-48 22q-20 0 -33.5 -9t-22 -22.5t-12 -30t-4.5 -32.5h-132z" />
    <glyph glyph-name="uni021E" unicode="&#x21e;" horiz-adv-x="768" 
d="M253 935l139 -70l135 70l50 -93l-191 -119l-189 119zM25 699h324v-132h-62v-151h190v151h-59v132h325v-132h-58v-435h58v-132h-325v132h59v151h-190v-151h62v-132h-324v132h55v435h-55v132z" />
    <glyph glyph-name="uni021F" unicode="&#x21f;" horiz-adv-x="661" 
d="M339 0h-314v131h42v489h-42v130h242v-312q4 7 19 20t36.5 26.5t48 23.5t53.5 10q58 0 92.5 -19.5t53 -51t24 -71t5.5 -78.5v-167h47v-131h-257v272q0 13 -1 29t-6.5 30t-17.5 24t-34 10q-19 0 -31.5 -8.5t-19.5 -22t-9.5 -30t-2.5 -32.5v-141h72v-131zM25 993l139 -70
l135 70l50 -93l-191 -119l-189 119z" />
    <glyph glyph-name="uni0220" unicode="&#x220;" horiz-adv-x="816" 
d="M725 570v-686h62v-133h-228v177l-304 453v-252h77v-129h-307v129h59v441h-58v129h287l246 -367v238h-69v129h301v-129h-66z" />
    <glyph glyph-name="uni0221" unicode="&#x221;" horiz-adv-x="817" 
d="M571 750v-473q25 7 59 7q73 0 117 -40t56 -123q0 -14 -1 -35t-7 -40t-20.5 -32.5t-42.5 -13.5h-155q-6 -60 -34.5 -108t-82.5 -96l-96 53q17 21 28.5 36t18.5 29t10 29.5t3 38.5v18h-39l-17 37q-5 -5 -15.5 -12.5t-26.5 -15t-37 -13t-47 -5.5q-53 0 -96 21.5t-73 58
t-46.5 84.5t-16.5 100q0 58 19 105.5t51 80.5t74 51t88 18q53 0 82.5 -14.5t43.5 -23.5v148h-46v130h249zM225 255q0 -23 5 -45t14.5 -39t22.5 -28t30 -11q28 0 49.5 31t21.5 85q0 28 -5 52t-14.5 42t-23 28t-29.5 10q-32 0 -51.5 -34t-19.5 -91zM630 188q-19 0 -30.5 -16
t-16.5 -42h97q-7 27 -20 42.5t-30 15.5z" />
    <glyph glyph-name="uni0222" unicode="&#x222;" horiz-adv-x="646" 
d="M286 624q-10 -4 -20 -8.5t-17.5 -12t-12.5 -19.5t-5 -33t14 -38t33.5 -29.5t41 -20t35.5 -7.5q11 4 22.5 14.5t20.5 23t15 26.5t6 25q0 34 -12 48.5t-26.5 21.5t-26.5 14t-12 27q0 17 11 33.5t34 17.5q105 -14 159.5 -67t54.5 -126q0 -25 -8 -46.5t-21.5 -38.5t-30.5 -30
t-36 -21q58 -25 88 -73.5t30 -99.5q0 -46 -21.5 -86t-61 -69t-95.5 -46t-125 -17q-72 0 -128.5 17t-95.5 46t-60 69t-21 86q0 24 8.5 50t25 50t39 44t51.5 32q-43 23 -64.5 60t-21.5 73t14 68t40.5 57.5t65.5 42.5t89 24q23 0 31.5 -12t8.5 -29q0 -16 -5 -28.5t-10 -12.5h-1
zM214 199q0 -18 8.5 -36.5t23 -34t34 -25.5t41.5 -10q21 0 40 9t33.5 23.5t23 33.5t8.5 40q0 26 -15.5 45t-38 31t-47.5 18t-45 7q-13 -6 -25 -17.5t-21 -25.5t-14.5 -29t-5.5 -29z" />
    <glyph glyph-name="uni0223" unicode="&#x223;" horiz-adv-x="574" 
d="M254 457l-18 -6t-15.5 -8.5t-11 -15t-4.5 -24.5t12.5 -27.5t30 -22t36 -15t31.5 -5.5q9 3 19 11t18.5 17.5t13.5 19.5t5 18q0 25 -10.5 36t-23.5 16t-23.5 10t-10.5 20q0 13 9.5 24.5t30.5 12.5q92 -10 140.5 -49t48.5 -93q0 -37 -26 -63t-59 -37q52 -19 78 -54.5
t26 -73.5q0 -34 -19 -63.5t-53.5 -51t-84 -34t-110.5 -12.5q-63 0 -113 12.5t-84.5 34t-53 51t-18.5 63.5q0 18 7.5 37t22 36.5t34.5 32.5t45 24q-38 17 -57 44t-19 54q0 54 48 92.5t137 49.5q20 0 27.5 -9.5t7.5 -21.5q0 -13 -5 -21.5t-9 -8.5zM190 151q0 -12 7.5 -24
t21 -22.5t30.5 -17t37 -6.5q18 0 35 6t30 15.5t20.5 22t7.5 26.5q0 17 -13.5 29.5t-33.5 20.5t-42.5 12t-39.5 5q-23 -9 -41.5 -28.5t-18.5 -38.5z" />
    <glyph glyph-name="uni0224" unicode="&#x224;" horiz-adv-x="714" 
d="M31 436v263h656v-133l-364 -434h185v128h178l-1 -260q-2 -45 -14.5 -90t-45.5 -81.5t-91.5 -59.5t-151.5 -23v134q37 0 59 11.5t34 29.5t16 39t5 40h-471v130l364 437h-189v-131h-169z" />
    <glyph glyph-name="uni0225" unicode="&#x225;" horiz-adv-x="552" 
d="M528 55q0 -57 -7 -111.5t-31 -97t-68.5 -69t-119.5 -26.5v132q27 0 43.5 11.5t25.5 28.5t12 38t4 39h-362v131l241 240h-111v-71h-130v200h495v-129l-238 -240h105v68h141v-144z" />
    <glyph glyph-name="uni0226" unicode="&#x226;" horiz-adv-x="823" 
d="M808 0h-401v131h95l-21 68h-205l-21 -68h78v-131h-318v131h68l135 439h-41v129h384l177 -568h70v-131zM313 319h131l-66 216zM302 845q0 17 7 35t20.5 33t34 24.5t46.5 9.5t46.5 -9.5t34.5 -24.5t21.5 -33t7.5 -35q0 -42 -28 -71.5t-82 -29.5q-24 0 -43.5 9t-34 23.5
t-22.5 32.5t-8 36z" />
    <glyph glyph-name="uni0227" unicode="&#x227;" horiz-adv-x="600" 
d="M36 458q15 9 38 21t51.5 23.5t61 19t67.5 7.5q45 0 93 -9.5t87.5 -33t65 -63.5t25.5 -100v-195h60v-128h-214l-24 45q-14 -19 -31.5 -31.5t-36 -19.5t-36.5 -10t-31 -3q-36 0 -71 10t-63 30t-45.5 51.5t-17.5 75.5q0 42 16.5 76t45 58t66.5 37t80 13q22 0 39.5 -4.5
t30 -10.5t20 -12t9.5 -8v35q0 34 -27 45t-68 11q-45 0 -82.5 -15t-66.5 -31zM258 111q23 0 40 11t24 22v38q-1 2 -4.5 6.5t-10.5 9.5t-17.5 9t-26.5 4q-30 0 -44 -15t-14 -38q0 -21 15 -34t38 -13zM191 646q0 17 7 35t20.5 33t34 24.5t46.5 9.5t46.5 -9.5t34.5 -24.5
t21.5 -33t7.5 -35q0 -42 -28 -71.5t-82 -29.5q-24 0 -43.5 9t-34 23.5t-22.5 32.5t-8 36z" />
    <glyph glyph-name="uni0228" unicode="&#x228;" horiz-adv-x="653" 
d="M25 699h603v-221h-173v89h-160v-138h190v-133h-190v-163h160v93h173v-226h-248l-16 -36q36 -3 56.5 -23.5t20.5 -49.5q0 -18 -6.5 -36.5t-20.5 -33t-37 -23.5t-57 -9q-23 0 -47.5 6t-40.5 14l32 62q24 -11 48 -11q33 0 33 24t-33 24q-9 0 -16 -0.5t-12 -1.5l-10 17l24 77
h-273v133h63v434h-63v132z" />
    <glyph glyph-name="uni0229" unicode="&#x229;" horiz-adv-x="542" 
d="M527 69q-47 -40 -97.5 -60t-110.5 -25l-14 -32q36 -3 56.5 -23.5t20.5 -49.5q0 -18 -6.5 -36.5t-20.5 -33t-37 -23.5t-57 -9q-23 0 -47.5 6t-40.5 14l32 62q24 -11 48 -11q33 0 33 24t-33 24q-9 0 -16 -0.5t-12 -1.5l-10 17l23 73q-43 4 -85 22t-75 51t-53 81.5
t-20 114.5q0 61 21 109.5t57 82.5t85 51.5t106 17.5q62 0 109.5 -18t79.5 -50t48 -75.5t16 -94.5q0 -20 -3 -39.5t-9 -36.5h-315q2 -10 6.5 -24t15.5 -27t30 -22t51 -9q13 0 28.5 1t33.5 6t38 14.5t40 26.5zM280 379q-23 0 -37.5 -9t-23 -21.5t-12 -26.5t-4.5 -23h151
q0 14 -3 28.5t-10.5 26t-22 18.5t-38.5 7z" />
    <glyph glyph-name="uni022A" unicode="&#x22a;" 
d="M373 -18q-78 0 -144 23t-113.5 69t-74 115.5t-26.5 163.5q0 81 25.5 148t72 115.5t111 75t142.5 26.5q92 0 159.5 -26.5t112 -75t66 -117.5t21.5 -153q0 -85 -23 -152.5t-68 -114.5t-110.5 -72t-150.5 -25zM373 139q24 0 42.5 15t32 42t20.5 65t7 85q0 46 -6.5 85.5
t-20 69t-34.5 46.5t-50 17q-23 0 -41.5 -15.5t-32 -43.5t-21 -67t-7.5 -85q0 -49 8.5 -88.5t23 -67.5t35 -43t44.5 -15zM402 825q0 13 6 27.5t18 26.5t29.5 19.5t40.5 7.5q22 0 40 -7.5t30 -19.5t18.5 -26.5t6.5 -27.5q0 -33 -24 -57t-71 -24q-21 0 -38 7t-29.5 18.5
t-19.5 26t-7 29.5zM163 825q0 13 6 27.5t18 26.5t29.5 19.5t40.5 7.5q22 0 40 -7.5t30 -19.5t18.5 -26.5t6.5 -27.5q0 -33 -24.5 -57t-70.5 -24q-21 0 -38 7t-29.5 18.5t-19.5 26t-7 29.5zM135 1026h485v-106h-485v106z" />
    <glyph glyph-name="uni022B" unicode="&#x22b;" horiz-adv-x="574" 
d="M290 -13q-54 0 -104.5 16.5t-89.5 49.5t-62 83t-23 116q0 63 23.5 111.5t62 81.5t88 50t100.5 17q59 0 110 -18.5t88.5 -53t58.5 -84t21 -112.5q0 -62 -21.5 -109.5t-58.5 -80.5t-86.5 -50t-106.5 -17zM290 115q16 0 28.5 10t21.5 28t13.5 42.5t4.5 52.5t-5 52.5
t-14 42.5t-22.5 28.5t-31.5 10.5q-15 0 -27.5 -10t-21.5 -28t-14.5 -42t-5.5 -51q0 -62 21 -99t53 -37zM311 618q0 13 6 27.5t18 26.5t29.5 19.5t40.5 7.5q22 0 40 -7.5t30 -19.5t18.5 -26.5t6.5 -27.5q0 -33 -24 -57t-71 -24q-21 0 -38 7t-29.5 18.5t-19.5 26t-7 29.5z
M72 618q0 13 6 27.5t18 26.5t29.5 19.5t40.5 7.5q22 0 40 -7.5t30 -19.5t18.5 -26.5t6.5 -27.5q0 -33 -24.5 -57t-70.5 -24q-21 0 -38 7t-29.5 18.5t-19.5 26t-7 29.5zM44 819h485v-106h-485v106z" />
    <glyph glyph-name="uni022C" unicode="&#x22c;" 
d="M373 -18q-78 0 -144 23t-113.5 69t-74 115.5t-26.5 163.5q0 81 25.5 148t72 115.5t111 75t142.5 26.5q92 0 159.5 -26.5t112 -75t66 -117.5t21.5 -153q0 -85 -23 -152.5t-68 -114.5t-110.5 -72t-150.5 -25zM373 139q24 0 42.5 15t32 42t20.5 65t7 85q0 46 -6.5 85.5
t-20 69t-34.5 46.5t-50 17q-23 0 -41.5 -15.5t-32 -43.5t-21 -67t-7.5 -85q0 -49 8.5 -88.5t23 -67.5t35 -43t44.5 -15zM555 805q-22 -27 -51 -41t-72 -14q-23 0 -38.5 6t-29.5 12.5t-29 12.5t-37 6q-40 0 -70 -30l-44 100q23 29 51 44t66 15q24 0 40 -5.5t30.5 -12
t29.5 -12t36 -5.5q22 0 42.5 9t30.5 20zM86 995h548v-70h-548v70z" />
    <glyph glyph-name="uni022D" unicode="&#x22d;" horiz-adv-x="574" 
d="M290 -13q-54 0 -104.5 16.5t-89.5 49.5t-62 83t-23 116q0 63 23.5 111.5t62 81.5t88 50t100.5 17q59 0 110 -18.5t88.5 -53t58.5 -84t21 -112.5q0 -62 -21.5 -109.5t-58.5 -80.5t-86.5 -50t-106.5 -17zM290 115q16 0 28.5 10t21.5 28t13.5 42.5t4.5 52.5t-5 52.5
t-14 42.5t-22.5 28.5t-31.5 10.5q-15 0 -27.5 -10t-21.5 -28t-14.5 -42t-5.5 -51q0 -62 21 -99t53 -37zM472 606q-22 -27 -51 -41t-72 -14q-23 0 -38.5 6t-29.5 12.5t-29 12.5t-37 6q-40 0 -70 -30l-44 100q23 29 51 44t66 15q24 0 40 -5.5t30.5 -12t29.5 -12t36 -5.5
q22 0 42.5 9t30.5 20zM54 829h462v-73h-462v73z" />
    <glyph glyph-name="uni022E" unicode="&#x22e;" 
d="M373 -18q-78 0 -144 23t-113.5 69t-74 115.5t-26.5 163.5q0 81 25.5 148t72 115.5t111 75t142.5 26.5q92 0 159.5 -26.5t112 -75t66 -117.5t21.5 -153q0 -85 -23 -152.5t-68 -114.5t-110.5 -72t-150.5 -25zM373 139q24 0 42.5 15t32 42t20.5 65t7 85q0 46 -6.5 85.5
t-20 69t-34.5 46.5t-50 17q-23 0 -41.5 -15.5t-32 -43.5t-21 -67t-7.5 -85q0 -49 8.5 -88.5t23 -67.5t35 -43t44.5 -15zM259 845q0 17 7 35t20.5 33t34 24.5t46.5 9.5t46.5 -9.5t34.5 -24.5t21.5 -33t7.5 -35q0 -42 -28 -71.5t-82 -29.5q-24 0 -43.5 9t-34 23.5t-22.5 32.5
t-8 36z" />
    <glyph glyph-name="uni022F" unicode="&#x22f;" horiz-adv-x="574" 
d="M290 -13q-54 0 -104.5 16.5t-89.5 49.5t-62 83t-23 116q0 63 23.5 111.5t62 81.5t88 50t100.5 17q59 0 110 -18.5t88.5 -53t58.5 -84t21 -112.5q0 -62 -21.5 -109.5t-58.5 -80.5t-86.5 -50t-106.5 -17zM290 115q16 0 28.5 10t21.5 28t13.5 42.5t4.5 52.5t-5 52.5
t-14 42.5t-22.5 28.5t-31.5 10.5q-15 0 -27.5 -10t-21.5 -28t-14.5 -42t-5.5 -51q0 -62 21 -99t53 -37zM177 666q0 17 7 35t20.5 33t34 24.5t46.5 9.5t46.5 -9.5t34.5 -24.5t21.5 -33t7.5 -35q0 -42 -28 -71.5t-82 -29.5q-24 0 -43.5 9t-34 23.5t-22.5 32.5t-8 36z" />
    <glyph glyph-name="uni0230" unicode="&#x230;" 
d="M373 -18q-78 0 -144 23t-113.5 69t-74 115.5t-26.5 163.5q0 81 25.5 148t72 115.5t111 75t142.5 26.5q92 0 159.5 -26.5t112 -75t66 -117.5t21.5 -153q0 -85 -23 -152.5t-68 -114.5t-110.5 -72t-150.5 -25zM373 139q24 0 42.5 15t32 42t20.5 65t7 85q0 46 -6.5 85.5
t-20 69t-34.5 46.5t-50 17q-23 0 -41.5 -15.5t-32 -43.5t-21 -67t-7.5 -85q0 -49 8.5 -88.5t23 -67.5t35 -43t44.5 -15zM259 820q0 13 7 26.5t20.5 25t33.5 18.5t46 7q25 0 45.5 -7t34.5 -18.5t21.5 -25t7.5 -26.5q0 -32 -28 -54t-81 -22q-24 0 -43.5 7t-33.5 17.5t-22 24
t-8 27.5zM143 999h462v-73h-462v73z" />
    <glyph glyph-name="uni0231" unicode="&#x231;" horiz-adv-x="574" 
d="M290 -13q-54 0 -104.5 16.5t-89.5 49.5t-62 83t-23 116q0 63 23.5 111.5t62 81.5t88 50t100.5 17q59 0 110 -18.5t88.5 -53t58.5 -84t21 -112.5q0 -62 -21.5 -109.5t-58.5 -80.5t-86.5 -50t-106.5 -17zM290 115q16 0 28.5 10t21.5 28t13.5 42.5t4.5 52.5t-5 52.5
t-14 42.5t-22.5 28.5t-31.5 10.5q-15 0 -27.5 -10t-21.5 -28t-14.5 -42t-5.5 -51q0 -62 21 -99t53 -37zM56 802h462v-73h-462v73zM172 623q0 13 7 26.5t20.5 25t33.5 18.5t46 7q25 0 45.5 -7t34.5 -18.5t21.5 -25t7.5 -26.5q0 -32 -28 -54t-81 -22q-24 0 -43.5 7t-33.5 17.5
t-22 24t-8 27.5z" />
    <glyph glyph-name="uni0232" unicode="&#x232;" horiz-adv-x="669" 
d="M373 384q1 7 5.5 18t10 23t11.5 24t10 21l55 101h-55v128h269v-128h-54l-185 -325v-116h56v-130h-320v130h57v118l-194 323h-49v128h342v-128h-52l58 -106q2 -7 6.5 -18t9.5 -23t9 -23t6 -17h4zM55 897h558v-133h-558v133z" />
    <glyph glyph-name="uni0233" unicode="&#x233;" horiz-adv-x="580" 
d="M382 373h-46v127h254v-124h-48l-190 -462q-11 -24 -25.5 -49t-38.5 -45.5t-60.5 -33.5t-90.5 -13q-39 2 -68.5 16t-52.5 34l75 118q14 -13 31.5 -24t34.5 -11q20 0 34.5 17t21.5 37l14 42l-195 370h-41v128h308v-127h-47l65 -156zM11 698h558v-133h-558v133z" />
    <glyph glyph-name="uni0234" unicode="&#x234;" horiz-adv-x="510" 
d="M258 750v-473q25 7 59 7q73 0 117 -40t56 -123q0 -14 -1 -35t-7 -40t-20.5 -32.5t-42.5 -13.5h-155q-6 -60 -34.5 -108t-82.5 -96l-96 53q17 21 28.5 36t18.5 29t10 29.5t3 38.5v18h-86v131h43v490h-42v129h232zM317 188q-19 0 -30.5 -16t-16.5 -41l47 -1h50
q-7 27 -20 42.5t-30 15.5z" />
    <glyph glyph-name="uni0235" unicode="&#x235;" horiz-adv-x="647" 
d="M333 0h-308v131h42v239h-42v130h213l23 -62q26 35 60.5 57.5t82.5 22.5q58 0 93.5 -19.5t55 -51t26 -71t6.5 -78.5l1 -21q25 7 59 7q73 0 117 -40t56 -123q0 -14 -1 -35t-7 -40t-20.5 -32.5t-42.5 -13.5h-155q-6 -60 -34.5 -108t-82.5 -96l-96 53q17 21 28.5 36t18.5 29
t10 29.5t3 38.5v18h-59v273q0 13 -0.5 29t-5.5 30t-16.5 24t-33.5 10q-19 0 -31.5 -8.5t-19.5 -22t-9.5 -30t-2.5 -32.5v-142h72v-131zM645 188q-19 0 -30.5 -16t-16.5 -41l34 -1h63q-7 27 -20 42.5t-30 15.5z" />
    <glyph glyph-name="uni0236" unicode="&#x236;" horiz-adv-x="523" 
d="M15 500h54v92l184 59v-151h95v-130h-95v-103l23 10q25 7 59 7q73 0 117 -40t56 -123q0 -13 -0.5 -32t-5.5 -37t-16 -32.5t-33 -18.5h1q-8 -3 -27.5 -5.5t-44.5 -5t-52 -4t-50 -2.5q-8 -54 -36 -98.5t-79 -89.5l-96 53q17 21 28.5 36t18.5 29t10 29.5t3 38.5v20
q-21 12 -32.5 30.5t-17.5 42.5t-7.5 53.5t-2.5 63.5v178h-54v130zM335 188q-9 0 -17.5 -7t-15.5 -18t-12 -24.5t-8 -26.5l103 18q-7 27 -20 42.5t-30 15.5z" />
    <glyph glyph-name="dotlessj" unicode="&#x237;" horiz-adv-x="360" 
d="M128 370h-42v130h232v-430q0 -47 -10 -96t-42 -90t-92 -67t-160 -26v134q43 0 66.5 16t34 38.5t12 47.5t1.5 43v300z" />
    <glyph glyph-name="uni0238" unicode="&#x238;" horiz-adv-x="948" 
d="M368 620h-46v130h250v-289q8 10 22.5 18.5t32.5 15t38 10t38 3.5q58 0 101 -22t71.5 -58.5t43 -84t14.5 -97.5q-1 -58 -17.5 -105.5t-46.5 -81t-72 -52t-95 -18.5q-29 0 -49 3.5t-35 10t-26.5 14.5t-21.5 17l-15 -34h-170l-17 37q-5 -5 -15.5 -12.5t-26.5 -15t-37 -13
t-47 -5.5q-53 0 -96 21.5t-73 58t-46.5 84.5t-16.5 100q0 58 19 105.5t51 80.5t74 51t88 18q53 0 82.5 -14.5t43.5 -23.5v148zM225 255q0 -23 5 -45t14.5 -39t22.5 -28t30 -11q28 0 49.5 31t21.5 85q0 28 -5 52t-14.5 42t-23 28t-29.5 10q-32 0 -51.5 -34t-19.5 -91z
M713 244q0 22 -5 44.5t-14.5 39.5t-23 28t-29.5 11q-26 0 -45.5 -25.5t-24.5 -70.5v-42q4 -48 23 -79t48 -31q32 0 51.5 34t19.5 91z" />
    <glyph glyph-name="uni0239" unicode="&#x239;" horiz-adv-x="967" 
d="M318 -99h65v132q-17 -14 -50 -28t-78 -14q-48 0 -90 18.5t-73 52.5t-49 82.5t-18 108.5q0 65 18.5 113t51 80t76 48t93.5 16q49 0 80 -15t39 -25l19 30h168l17 -35q7 5 18.5 12.5t26.5 14t34 11.5t42 5q58 0 102.5 -21t74 -57t44.5 -83.5t15 -100.5q0 -60 -17.5 -107.5
t-48 -80.5t-72.5 -51t-90 -18q-31 0 -54.5 5t-39 12t-24.5 13.5t-12 8.5v-127h54v-131h-322v131zM729 244q0 22 -5 44.5t-14.5 39.5t-23 28t-29.5 11q-28 0 -49.5 -31t-21.5 -85q0 -28 5 -52t14.5 -42t23 -28t29.5 -10q32 0 51.5 34t19.5 91zM383 257q0 22 -5 44.5
t-14.5 39.5t-23 28t-29.5 11q-28 0 -49.5 -31t-21.5 -85q0 -28 5 -52t14.5 -42t23 -28t29.5 -10q30 0 49.5 30.5t21.5 83.5v11z" />
    <glyph glyph-name="uni023A" unicode="&#x23a;" horiz-adv-x="823" 
d="M635 750h117l-149 -189l135 -430h70v-131h-401v131h95l-21 68h-163l-53 -68h68v-131h-171l-43 -55h-117l43 55h-30v131h68l135 439h-41v129h384l9 -31zM323 354l79 100l-24 81zM444 319l-9 28l-22 -28h31z" />
    <glyph glyph-name="uni023B" unicode="&#x23b;" horiz-adv-x="686" 
d="M635 750h117l-99 -126v-209h-165l-179 -229q17 -14 38.5 -22.5t47.5 -8.5q31 0 59 14t49 31.5t34.5 33t16.5 19.5l117 -128q-26 -28 -58 -53.5t-70 -45t-82 -31t-93 -11.5q-105 0 -185 43l-64 -82h-117l108 137q-46 47 -70.5 112t-24.5 149q0 86 29 154.5t74 116
t98.5 72.5t102.5 25q37 0 64.5 -9t46.5 -20.5t29.5 -23t13.5 -15.5l23 56h99zM368 541q-27 0 -49 -15.5t-37.5 -42.5t-24 -63t-8.5 -77q0 -39 9 -72l185 235q-13 16 -31.5 25.5t-43.5 9.5z" />
    <glyph glyph-name="uni023C" unicode="&#x23c;" horiz-adv-x="531" 
d="M486 562h117l-96 -123v-165h-130l-105 -133q17 -8 43 -8q38 0 66 15.5t52 41.5l88 -102q-18 -19 -43 -37.5t-56.5 -32.5t-68.5 -23t-77 -9q-60 0 -111 18l-46 -59h-117l83 106q-38 33 -61 83.5t-23 118.5q0 66 20.5 114.5t54.5 80t78.5 46.5t92.5 15q25 0 45.5 -6t36 -15
t26.5 -19t17 -17l17 48h48zM297 379q-22 0 -38.5 -11t-27.5 -29t-16.5 -41t-5.5 -47q0 -22 4 -37l118 150q-15 15 -34 15z" />
    <glyph glyph-name="uni023D" unicode="&#x23d;" horiz-adv-x="610" 
d="M13 425h67v142h-55v132h316v-132h-53v-142h108v-124h-108v-168h129v127h168v-260h-560v133h55v168h-67v124z" />
    <glyph glyph-name="uni023E" unicode="&#x23e;" horiz-adv-x="701" 
d="M635 750h117l-66 -84v-227h-147v40l-84 -107v-239h83v-133h-372v5l-47 -60h-117l246 313v309h-86v-128h-147v260h580zM455 521l36 46h-36v-46z" />
    <glyph glyph-name="uni023F" unicode="&#x23f;" horiz-adv-x="508" 
d="M15 0v180h134q0 -20 12.5 -33t29.5 -20.5t35 -10.5t29 -3q15 0 29.5 6.5t14.5 27.5q0 14 -20.5 22.5t-52 16.5t-67.5 19t-67.5 30.5t-52 51t-20.5 80.5q0 38 17.5 65.5t44 45t57 26t57.5 8.5q51 0 92 -23t57 -55l8 66h123v-180h-130q0 16 -9 29.5t-23.5 24t-32.5 16.5
t-37 6q-16 0 -27.5 -8.5t-11.5 -27.5q0 -17 21 -27t52.5 -19.5t68.5 -21t68.5 -30.5t52.5 -48.5t21 -75.5q0 -35 -15.5 -63t-41 -47.5t-59.5 -29.5t-70 -10q-54 0 -94.5 22t-58.5 51q-1 -5 -1 -10.5v-10.5q0 -29 11.5 -49t30 -32t43 -17t50.5 -5q22 0 44.5 3t41.5 8.5t34 12
t23 14.5l45 -81q-15 -13 -38 -23.5t-51.5 -18t-60.5 -11.5t-65 -4q-47 0 -90 8.5t-77 28t-54 50.5t-20 76z" />
    </font>
</defs>
</svg>
